<?xml version="1.0" standalone="no"?>
<!DOCTYPE svg PUBLIC "-//W3C//DTD SVG 1.1//EN" "http://www.w3.org/Graphics/SVG/1.1/DTD/svg11.dtd" >
<svg xmlns="http://www.w3.org/2000/svg" xmlns:xlink="http://www.w3.org/1999/xlink" version="1.1">
<metadata>
Created by FontForge 20170812 at Sun Jul 17 08:03:04 2005
 By www-data
Copyright 2005, Canada Type. All rights reserved.
</metadata>
<defs>
<font id="Tomato" horiz-adv-x="866" >
  <font-face 
    font-family="Tomato"
    font-weight="400"
    font-stretch="normal"
    units-per-em="1000"
    panose-1="2 0 5 5 0 0 0 2 0 4"
    ascent="800"
    descent="-200"
    x-height="650"
    cap-height="650"
    bbox="-162 -336 1498 930"
    underline-thickness="50"
    underline-position="-100"
    unicode-range="U+0020-FB02"
  />
<missing-glyph horiz-adv-x="299" 
 />
    <glyph glyph-name=".notdef" horiz-adv-x="299" 
 />
    <glyph glyph-name="exclam" unicode="!" horiz-adv-x="315" 
d="M71 65q0 18 8 32.5t20.5 24.5t29 15t33.5 5q16 0 30 -7t24.5 -19t16.5 -26.5t6 -29.5q0 -37 -24 -58.5t-59 -21.5q-38 0 -61.5 23.5t-23.5 61.5zM45 530q0 26 6 51t19.5 45.5t34.5 33t51 12.5q32 0 53.5 -12t35 -31.5t19.5 -45t6 -53.5q0 -88 -31.5 -173.5t-82.5 -154.5
q-22 35 -42 75t-35.5 82t-24.5 85.5t-9 85.5z" />
    <glyph glyph-name="quotedbl" unicode="&#x22;" horiz-adv-x="403" 
d="M221 590q0 15 3.5 29.5t11 26t20 19t29.5 7.5q36 0 51 -25t15 -57q0 -51 -18.5 -100.5t-47.5 -89.5q-26 42 -45 90.5t-19 99.5zM51 590q0 15 3.5 29.5t11 26t20 19t29.5 7.5q36 0 51 -25t15 -57q0 -51 -18.5 -100.5t-47.5 -89.5q-26 42 -45 90.5t-19 99.5z" />
    <glyph glyph-name="numbersign" unicode="#" horiz-adv-x="631" 
d="M229 247h106l63 146h-106zM145 247l63 146h-121l40 84h117l53 123h85l-53 -123h105l53 123h85l-53 -123h111l-40 -84h-108l-63 -146h131l-40 -84h-128l-49 -113h-84l49 113h-106l-49 -113h-84l49 113h-101l40 84h98z" />
    <glyph glyph-name="dollar" unicode="$" horiz-adv-x="454" 
d="M214 105q-24 3 -41 9.5t-31 13.5t-26.5 12t-26.5 5q-17 0 -29.5 -6.5t-26.5 -15.5q0 22 -0.5 43t-0.5 47.5t-0.5 62t-0.5 86.5q18 -32 36 -67t40.5 -64.5t52 -48.5t70.5 -19q13 0 26 4t23 12.5t16.5 20.5t6.5 27q0 23 -19 38.5t-47 28t-61 24.5t-61 27.5t-47 37.5t-19 55
q0 36 16 60t40 38.5t53.5 20.5t56.5 6v88h62v-96q25 -7 49 -13.5t56 -6.5q7 0 13.5 2.5t12 5.5t8.5 5l3 2v-202q-21 33 -41 61t-41.5 48.5t-46.5 32t-56 11.5q-9 0 -19.5 -2t-19.5 -6.5t-15 -12.5t-6 -20q0 -14 8 -25t28 -22.5t53 -25.5t82 -34q35 -14 59.5 -42t24.5 -73
q0 -34 -13.5 -58.5t-35 -40.5t-49 -24.5t-54.5 -10.5v-104h-62v105z" />
    <glyph glyph-name="percent" unicode="%" horiz-adv-x="1153" 
d="M153 477q0 -32 7 -61t22 -50.5t39.5 -34.5t59.5 -13q38 0 62.5 16.5t38.5 42t19 55t5 54.5q0 30 -6.5 58t-21.5 49t-38 34t-56 13q-36 0 -61 -14t-40.5 -36.5t-22.5 -52t-7 -60.5zM30 480q0 55 19.5 96.5t53 69.5t78 42t94.5 14t95 -14t79 -42t54 -68.5t20 -94.5
q0 -55 -18.5 -97.5t-50.5 -70.5t-76.5 -42.5t-96.5 -14.5q-54 0 -100 13.5t-79.5 41t-52.5 69t-19 98.5zM753 179q0 -32 7 -61t22 -50.5t39.5 -34.5t59.5 -13q38 0 62.5 16.5t38.5 42t19 55t5 54.5q0 30 -6.5 58t-21.5 49t-38 34t-56 13q-36 0 -61 -14t-40.5 -36.5
t-22.5 -52t-7 -60.5zM204 0q7 5 18.5 14t23 18.5t20.5 17t12 10.5q65 62 120.5 122.5t107.5 121.5t102 123.5t103 127.5q15 19 27 44t12 51h203q-32 -27 -67.5 -54t-60.5 -52q-59 -59 -105.5 -110.5t-88 -101.5t-82 -103.5t-88.5 -117.5q-18 -24 -33.5 -53.5t-23.5 -57.5
h-200zM630 182q0 55 19.5 96.5t53 69.5t78 42t94.5 14t95 -14t79 -42t54 -68.5t20 -94.5q0 -55 -18.5 -97.5t-50.5 -70.5t-76.5 -42.5t-96.5 -14.5q-54 0 -100 13.5t-79.5 41t-52.5 69t-19 98.5z" />
    <glyph glyph-name="ampersand" unicode="&#x26;" horiz-adv-x="995" 
d="M406 478q0 -11 1.5 -22t3.5 -22q51 20 84.5 44.5t33.5 59.5q0 17 -17 28.5t-32 11.5q-19 0 -33 -10t-23 -25t-13.5 -32.5t-4.5 -32.5zM465 78q-52 35 -98 80t-79 99q-23 -20 -36.5 -43t-13.5 -52q0 -24 13 -43t32.5 -31.5t43.5 -19t45 -6.5q48 0 93 16zM466 686
q30 0 64.5 -8t64 -24.5t49 -42.5t19.5 -62q0 -40 -18.5 -70t-48.5 -54t-68.5 -43.5t-78.5 -37.5q29 -48 72 -94t94 -82q29 29 47 62.5t18 68.5q0 3 -0.5 10.5t-4.5 18t-11 22.5t-21 25h66.5t92 0.5t100.5 0.5h91q-48 -22 -89 -47t-73 -67q-29 -37 -61.5 -73.5t-71.5 -70.5
q36 -17 71.5 -26.5t69.5 -9.5q28 0 48 8.5t46 25.5q5 0 5.5 -2t0.5 -9q0 -27 -18.5 -50t-47 -40.5t-62.5 -27.5t-66 -10q-43 0 -90.5 12.5t-96.5 35.5q-51 -23 -107 -37t-122 -14q-46 0 -98 10t-96 34t-73 63.5t-29 97.5q0 38 16.5 67.5t44.5 52.5t65 41t77 33
q-12 42 -12 88q0 50 20 91t54 71t77.5 46.5t90.5 16.5z" />
    <glyph glyph-name="quotesingle" unicode="'" horiz-adv-x="233" 
d="M51 590q0 15 3.5 29.5t11 26t20 19t29.5 7.5q36 0 51 -25t15 -57q0 -51 -18.5 -100.5t-47.5 -89.5q-26 42 -45 90.5t-19 99.5z" />
    <glyph glyph-name="parenleft" unicode="(" horiz-adv-x="303" 
d="M299 -216q-125 88 -187 230t-62 329q0 33 2.5 76.5t11.5 92.5t26 101.5t45 102t69 94.5t99 80q-29 -54 -52.5 -122.5t-39.5 -141t-24.5 -144t-8.5 -133.5q0 -70 9.5 -142.5t26 -144.5t38.5 -142t47 -136z" />
    <glyph glyph-name="parenright" unicode=")" horiz-adv-x="303" 
d="M4 -216q25 66 47 136t38.5 142t26 144.5t9.5 142.5q0 62 -8.5 133.5t-24.5 144t-39.5 141t-52.5 122.5q58 -35 99 -80t69 -94.5t45 -102t26 -101.5t11.5 -92.5t2.5 -76.5q0 -187 -62 -329t-187 -230z" />
    <glyph glyph-name="asterisk" unicode="*" horiz-adv-x="431" 
d="M393 565q-30 -9 -61 -21t-56 -25q26 -13 59.5 -24.5t71.5 -22.5q-3 -4 -11.5 -18t-17.5 -30.5t-16 -31t-7 -20.5q-26 26 -53.5 49t-57.5 42q2 -33 8.5 -71.5t14.5 -69.5q-9 0 -23.5 -1t-30 -2t-29.5 -2.5t-22 -2.5q3 15 6 33.5t5.5 37t4 36.5t1.5 32q-27 -20 -53.5 -49.5
t-49.5 -57.5q-2 9 -9.5 24t-16.5 30t-17 27.5t-10 15.5q31 17 63.5 33.5t60.5 32.5q-31 14 -67 23.5t-60 12.5q5 6 11.5 16.5t14 22.5l15 24t13.5 21q8 12 10 16l3 6q23 -31 43.5 -46.5t47.5 -32.5q0 23 -6 51t-12 53v-1q-1 2 -2 10t-3 17q4 -1 8.5 -1.5t10.5 -0.5
q12 0 24.5 1.5t24 3t21 2.5t14.5 1q-5 -34 -8 -72.5t-4 -67.5q13 10 28 23.5t29.5 28l27.5 27.5t22 23q2 -8 8 -22t12.5 -29t13 -28l9.5 -19z" />
    <glyph glyph-name="plus" unicode="+" horiz-adv-x="400" 
d="M256 460v-92h92v-114h-92v-91h-114v91h-91v114h91v92h114z" />
    <glyph glyph-name="comma" unicode="," horiz-adv-x="271" 
d="M51 62q0 18 8 32.5t20.5 24.5t29 15t33.5 5q16 0 30 -7t24.5 -19t16.5 -27.5t6 -32.5q0 -26 -10 -55.5t-25.5 -54.5t-34 -41t-35.5 -16q-8 0 -15.5 3t-7.5 14q0 5 5 10.5t12 12.5q13 14 21.5 25.5t10.5 25.5h-4q-38 0 -61.5 23.5t-23.5 61.5z" />
    <glyph glyph-name="hyphen" unicode="-" horiz-adv-x="400" 
d="M348 254h-297v114h297v-114z" />
    <glyph glyph-name="period" unicode="." horiz-adv-x="271" 
d="M51 62q0 18 8 32.5t20.5 24.5t29 15t33.5 5q16 0 30 -7t24.5 -19t16.5 -26.5t6 -29.5q0 -37 -24 -58.5t-59 -21.5q-38 0 -61.5 23.5t-23.5 61.5z" />
    <glyph glyph-name="slash" unicode="/" horiz-adv-x="413" 
d="M447 784l-404 -928l-81 5l399 923h86z" />
    <glyph glyph-name="zero" unicode="0" horiz-adv-x="807" 
d="M247 319q0 -41 6 -83t23 -76.5t47.5 -56t79.5 -21.5q53 0 84.5 23.5t48 60.5t22 82t5.5 88q0 38 -5 80.5t-21 78.5t-45 59.5t-77 23.5q-55 0 -88.5 -23.5t-51 -61t-23 -83.5t-5.5 -91zM50 341q0 79 29 140.5t78.5 104t116 64.5t141.5 22q72 0 134 -25.5t108.5 -70.5
t73 -106.5t26.5 -133.5q0 -78 -27 -141.5t-74.5 -109t-113 -70t-142.5 -24.5q-83 0 -148 25t-110 71t-68.5 110.5t-23.5 143.5z" />
    <glyph glyph-name="one" unicode="1" horiz-adv-x="410" 
d="M394 1h-37h-56t-65.5 -0.5t-65.5 -0.5h-55.5h-36.5q22 32 38.5 71t27.5 79.5t16.5 80t5.5 72.5q0 45 -2.5 78t-18 59.5t-48.5 50t-93 48.5q47 21 103.5 44t106 41.5t82.5 30.5l33 12q-9 -81 -14.5 -149.5t-5.5 -137.5q0 -46 3.5 -95t13 -97.5t26 -95.5t42.5 -91z" />
    <glyph glyph-name="two" unicode="2" horiz-adv-x="664" 
d="M39 23q0 57 25 101.5t65.5 82t92 71t105.5 70.5q17 12 34.5 26t32 30.5t24 35.5t9.5 41q0 30 -10.5 48.5t-28 28.5t-40 13.5t-47.5 3.5q-23 0 -50.5 -5.5t-51 -18t-39 -32.5t-15.5 -49q0 -13 7 -24t15.5 -19.5t15.5 -14.5t7 -10q0 -11 -7.5 -17.5t-17.5 -10.5t-20.5 -5
t-17.5 -1q-23 0 -42.5 10t-33.5 26.5t-21.5 37.5t-7.5 42q0 56 32 92t79.5 57.5t101.5 30t98 8.5q54 0 107.5 -11t96 -36t69 -63.5t26.5 -94.5q0 -44 -20.5 -79.5t-52.5 -63.5t-70.5 -49t-73.5 -36q-29 -13 -62.5 -23.5t-62 -22.5t-47.5 -28t-19 -40q0 -13 8 -21t19.5 -12.5
t23.5 -6.5t21 -2q54 0 106.5 17.5t98.5 48t83 72.5t59 90q0 -37 -4.5 -80.5t-9.5 -86.5t-9.5 -81t-4.5 -63h-576v23z" />
    <glyph glyph-name="three" unicode="3" horiz-adv-x="752" 
d="M50 169q0 45 29 75t74 30q4 0 10.5 -1.5t6.5 -6.5q0 -7 -10 -22t-10 -35q0 -37 21.5 -62.5t53 -40.5t67.5 -21.5t65 -6.5q24 0 49 5t45 16t33 30t13 46q0 35 -13.5 56.5t-35.5 33t-49.5 15.5t-55.5 4q-19 0 -40.5 -3t-34.5 -4v111q10 0 29 -1t42 -1q12 0 33 5t41.5 17
t35 31.5t14.5 48.5q0 23 -11 38t-27.5 24.5t-37 13.5t-38.5 4q-24 0 -52.5 -5t-53 -17t-40.5 -31.5t-16 -48.5q0 -7 3 -14t17 -21q0 -22 -16.5 -32.5t-35.5 -10.5t-33 9t-23 22.5t-13.5 30t-4.5 32.5q0 50 29.5 85.5t72.5 58t92 32.5t88 10q52 0 108 -8.5t102.5 -27.5
t76.5 -50t30 -77q0 -33 -15 -58t-38.5 -44t-52 -32.5t-55.5 -24.5q31 -6 63.5 -18.5t59 -32.5t43.5 -47.5t17 -64.5q0 -57 -34.5 -96t-84.5 -62.5t-106.5 -33.5t-101.5 -10q-29 0 -64.5 3t-71.5 11t-70 21.5t-60.5 34t-42.5 50t-16 68.5z" />
    <glyph glyph-name="four" unicode="4" horiz-adv-x="701" 
d="M186 295q0 -7 5 -12t12.5 -7t15 -3t13.5 -1h150q9 48 9 103q0 14 -2 39t-5 49t-8 42t-11 18q-2 0 -4.5 -3.5t-16.5 -21t-45 -54t-90 -103.5q-7 -8 -15 -20t-8 -26zM281 0q20 35 40.5 78.5t37.5 95.5h-335l-4 94q99 117 161 191t97 116t48.5 58t15.5 17h298
q-46 -73 -76 -152t-30 -166q0 -31 3 -60h139l9 -98h-130q14 -52 33.5 -96t41.5 -78h-349z" />
    <glyph glyph-name="five" unicode="5" horiz-adv-x="734" 
d="M52 148q0 35 21 55t56 20q8 0 19 -1.5t21 -5.5t17.5 -11t7.5 -19q0 -5 -8.5 -14.5t-8.5 -23.5q0 -23 18 -38.5t43 -24.5t51 -12.5t42 -3.5q33 0 64 8.5t55 26t38 44.5t14 63q0 60 -36.5 93t-94.5 33q-51 0 -93.5 -20t-77.5 -55q-20 13 -38 23.5t-35.5 19.5t-36 17.5
t-40.5 17.5q26 80 45.5 153.5t22.5 156.5h546q-19 -55 -19 -114h-362q-23 0 -40 -10t-28 -26.5t-16 -37.5t-5 -43q0 -8 3 -14t12 -6q7 0 25 7.5t44 17t59.5 17t70.5 7.5q50 0 99.5 -13t88.5 -40t63.5 -68.5t24.5 -98.5q0 -63 -30.5 -111.5t-77.5 -81t-105 -49.5t-114 -17
q-39 0 -91.5 9t-100 29.5t-80.5 55t-33 85.5z" />
    <glyph glyph-name="six" unicode="6" horiz-adv-x="764" 
d="M532 211q0 24 -9 43t-24.5 32.5t-35.5 20.5t-42 7q-37 0 -70 -8t-57.5 -21.5t-38.5 -31t-14 -35.5q0 -30 14 -55t36.5 -43t51.5 -27.5t60 -9.5q58 0 93.5 35t35.5 93zM674 516q0 -32 -22.5 -53t-54.5 -21q-3 0 -10 0.5t-14.5 3t-13 6t-5.5 9.5q3 4 4.5 13.5t1.5 13.5
q0 24 -11.5 40t-29.5 25.5t-39.5 13t-41.5 3.5q-49 0 -86 -16t-61.5 -44.5t-36.5 -67t-12 -82.5q0 -4 1 -4q19 16 47.5 29t61 22t64.5 14t58 5q45 0 88 -12.5t77 -37.5t54.5 -61t20.5 -84q0 -57 -26 -102.5t-68 -78t-94 -50t-103 -17.5q-78 0 -146 21t-118.5 63t-79.5 104
t-29 143t29 146.5t79 111t118 70.5t147 25q40 0 84 -8t81 -26t61.5 -46.5t24.5 -70.5z" />
    <glyph glyph-name="seven" unicode="7" horiz-adv-x="694" 
d="M168 0v1q0 52 15.5 105t38.5 103.5t50 98.5t50 90t38.5 77.5t15.5 61.5q0 20 -13 26t-30 6q-55 0 -101 -26.5t-84.5 -66t-70 -86.5t-57.5 -89q0 35 1.5 79t4.5 91t6.5 93.5t7.5 85.5h648q-58 -57 -115 -128t-101 -146.5t-71.5 -151t-27.5 -140.5q0 -23 6 -43.5t14 -40.5
h-225z" />
    <glyph glyph-name="eight" unicode="8" horiz-adv-x="787" 
d="M264 491q0 -24 13 -41t32.5 -28t42 -17.5t41.5 -10.5q33 10 62 20t50 22t33.5 27t12.5 34q0 27 -14 43t-35 24.5t-45.5 11.5t-44.5 3q-21 0 -47 -3.5t-48.5 -13t-37.5 -26.5t-15 -45zM420 240q-29 6 -66 14.5t-79 17.5q-35 -18 -56 -43t-21 -63q0 -31 19.5 -49.5
t48 -27.5t60 -11.5t54.5 -2.5h40q18 0 38 4.5t37 14.5t28 25.5t11 37.5q0 23 -11 37t-27.5 23t-36.5 14t-39 9zM737 186q0 -43 -17.5 -75t-46.5 -55t-66 -38t-76.5 -24t-78 -12.5t-69.5 -3.5q-30 0 -66 3t-73 11t-72 21.5t-62 34t-43.5 50t-16.5 68.5q0 55 33 91t84 61
q-40 24 -65.5 57t-25.5 79q0 63 30.5 105t77.5 67.5t103.5 36t107.5 10.5q24 0 55 -3t63.5 -10t64.5 -19t57 -30.5t40.5 -43.5t15.5 -59q0 -30 -11 -53t-29.5 -41t-44 -31t-55.5 -24q35 -11 68.5 -26t59.5 -36t42 -48.5t16 -62.5z" />
    <glyph glyph-name="nine" unicode="9" horiz-adv-x="764" 
d="M232 439q0 -24 9 -43t24.5 -32.5t35.5 -20.5t42 -7q38 0 70.5 8.5t57 22t38.5 30.5t14 35q0 30 -14 55t-36.5 43t-51.5 27.5t-60 9.5q-58 0 -93.5 -35t-35.5 -93zM90 134q0 32 22.5 53t54.5 21q3 0 10 -0.5t14.5 -3t13 -6t5.5 -9.5q-3 -4 -4.5 -13.5t-1.5 -13.5
q0 -24 11.5 -40t29.5 -25.5t39.5 -13t41.5 -3.5q50 0 86.5 16t61 44.5t36.5 67t12 82.5v4h-1q-19 -16 -47.5 -29t-61 -22t-64.5 -14t-58 -5q-45 0 -88 12.5t-77 37.5t-54.5 61t-20.5 84q0 57 26 102.5t68 78t94 50t103 17.5q78 0 146 -21t118.5 -63t79.5 -104t29 -143
t-28.5 -146.5t-79 -111t-118.5 -70.5t-147 -25q-40 0 -84 8t-81 26t-61.5 46.5t-24.5 70.5z" />
    <glyph glyph-name="colon" unicode=":" horiz-adv-x="271" 
d="M54 310q0 39 24.5 61t60.5 22q35 0 57.5 -22.5t22.5 -57.5q0 -34 -22.5 -58t-57.5 -24q-36 0 -60.5 22.5t-24.5 56.5zM51 62q0 18 8 32.5t20.5 24.5t29 15t33.5 5q16 0 30 -7t24.5 -19t16.5 -26.5t6 -29.5q0 -37 -24 -58.5t-59 -21.5q-38 0 -61.5 23.5t-23.5 61.5z" />
    <glyph glyph-name="semicolon" unicode=";" horiz-adv-x="271" 
d="M51 62q0 18 8 32.5t20.5 24.5t29 15t33.5 5q16 0 30 -7t24.5 -19t16.5 -27.5t6 -32.5q0 -26 -10 -55.5t-25.5 -54.5t-34 -41t-35.5 -16q-8 0 -15.5 3t-7.5 14q0 5 5 10.5t12 12.5q13 14 21.5 25.5t10.5 25.5h-4q-38 0 -61.5 23.5t-23.5 61.5zM54 310q0 39 24.5 61
t60.5 22q35 0 57.5 -22.5t22.5 -57.5q0 -34 -22.5 -58t-57.5 -24q-36 0 -60.5 22.5t-24.5 56.5z" />
    <glyph glyph-name="less" unicode="&#x3c;" horiz-adv-x="984" 
d="M892 434q32 0 48.5 -25.5t16.5 -59.5q0 -42 -23 -74t-58.5 -53t-77 -32t-79.5 -11q-41 0 -82.5 13.5t-83.5 33.5t-84.5 44t-85 44t-85 33.5t-85.5 13.5q-10 0 -27 -2.5t-34.5 -8t-32 -14.5t-19.5 -22q17 -5 31.5 -15t14.5 -34q0 -23 -17 -39t-45 -16q-32 0 -49 25t-17 59
q0 42 23 74t58.5 53.5t77.5 32.5t80 11q41 0 84 -13.5t86.5 -33.5t87.5 -44t86.5 -44t84 -33.5t80.5 -13.5q9 0 26 2.5t34 8.5t31 14.5t18 20.5q-17 5 -31 15t-14 34q0 23 17 39.5t45 16.5z" />
    <glyph glyph-name="equal" unicode="=" horiz-adv-x="400" 
d="M348 277v-114h-297v114h297zM348 477v-114h-297v114h297z" />
    <glyph glyph-name="greater" unicode="&#x3e;" horiz-adv-x="984" 
d="M892 434q32 0 48.5 -25.5t16.5 -59.5q0 -42 -23 -74t-58.5 -53t-77 -32t-79.5 -11q-41 0 -82.5 13.5t-83.5 33.5t-84.5 44t-85 44t-85 33.5t-85.5 13.5q-10 0 -27 -2.5t-34.5 -8t-32 -14.5t-19.5 -22q17 -5 31.5 -15t14.5 -34q0 -23 -17 -39t-45 -16q-32 0 -49 25t-17 59
q0 42 23 74t58.5 53.5t77.5 32.5t80 11q41 0 84 -13.5t86.5 -33.5t87.5 -44t86.5 -44t84 -33.5t80.5 -13.5q9 0 26 2.5t34 8.5t31 14.5t18 20.5q-17 5 -31 15t-14 34q0 23 17 39.5t45 16.5z" />
    <glyph glyph-name="question" unicode="?" horiz-adv-x="706" 
d="M235 62q0 18 8 32.5t20.5 24.5t29 15t33.5 5q16 0 30 -7t24.5 -19t16.5 -26.5t6 -29.5q0 -37 -24 -58.5t-59 -21.5q-38 0 -61.5 23.5t-23.5 61.5zM266 271q1 28 13.5 48t31 35.5t41.5 28t45 25.5q21 12 36 31.5t15 45.5q0 27 -14 45.5t-35.5 30t-47 16.5t-48.5 5
q-25 0 -54 -6t-54.5 -19t-42.5 -34t-17 -52q0 -21 10 -30t22.5 -13.5t22.5 -8.5t10 -16q0 -14 -7 -25.5t-18.5 -19t-25 -11.5t-26.5 -4q-54 0 -81 34t-27 85q0 64 32 107.5t81 70.5t108 38.5t112 11.5q30 0 66 -3.5t72.5 -12t70.5 -22.5t60.5 -35.5t42.5 -51t16 -68.5
q0 -54 -24.5 -87.5t-60.5 -54t-79 -31.5t-79 -21.5t-60.5 -23.5t-24.5 -36q0 -9 1 -13t2 -6l2 -4t1 -7q0 -9 -4.5 -15t-15.5 -6q-15 0 -27.5 7.5t-21.5 19t-14 25.5t-5 27z" />
    <glyph glyph-name="at" unicode="@" horiz-adv-x="1064" 
d="M479 139q0 -35 18.5 -56t53.5 -21q37 0 66 19t49.5 49t31.5 68.5t11 77.5q0 35 -7 62q-18 -18 -55 -34.5t-74.5 -38t-65.5 -51.5t-28 -75zM289 133q0 56 29 93.5t73 64t94.5 46t94.5 39t73 43.5t29 59q0 23 -9 42t-25 33.5t-37.5 22.5t-46.5 8q-38 0 -83.5 -9.5
t-92.5 -30t-91 -51.5t-78 -73.5t-54.5 -98t-20.5 -123.5q0 -116 27.5 -192.5t76.5 -122t115 -64t142 -18.5q25 0 64.5 3.5t79 12t71.5 22.5t42 35q-4 12 -4 24q0 32 18.5 52.5t50.5 20.5q35 0 57.5 -21.5t22.5 -55.5q0 -44 -36 -78.5t-91.5 -58.5t-123 -37t-129.5 -13
q-93 0 -180 20.5t-154 73t-107.5 142.5t-40.5 228q0 97 25.5 171.5t68 130t97 92.5t112 60t114 33t102.5 10q165 0 242.5 -52t77.5 -154q0 -72 -4.5 -139t-4.5 -130q0 -13 1.5 -33.5t6.5 -40t16.5 -34t30.5 -14.5q4 0 10.5 1t6.5 7q0 5 -4.5 9t-10 10t-10 15t-4.5 24
q0 14 5.5 23.5t14 15.5t18.5 8.5t19 2.5q23 0 40 -19.5t17 -42.5q0 -66 -41 -101.5t-110 -35.5q-38 0 -63 13t-40 28.5t-22 28.5t-9 13q-8 -6 -23 -23t-42.5 -34.5t-69.5 -31.5t-104 -14q-39 0 -78.5 8t-70.5 27.5t-50.5 51t-19.5 78.5z" />
    <glyph glyph-name="A" unicode="A" horiz-adv-x="865" 
d="M301 293q0 -17 9 -30t28 -13h109q21 0 31.5 14.5t10.5 34.5q0 16 -9.5 45.5t-23.5 58.5t-30.5 50.5t-30.5 21.5q-15 0 -31.5 -24.5t-30.5 -56t-23 -61t-9 -40.5zM5 0q43 55 82 117.5t69 129.5t47.5 138t17.5 143q0 30 -3 61t-11 61h398l1 -1q-2 -14 -2 -27v-27
q0 -85 21.5 -163.5t57.5 -152.5t82 -143.5t95 -135.5h-317q11 18 18.5 36t7.5 41q0 26 -13 41t-33 22.5t-44 9t-46 1.5h-21q-27 0 -53.5 -1.5t-47.5 -8t-34 -20t-13 -36.5q0 -22 10 -44.5t24 -40.5h-293z" />
    <glyph glyph-name="B" unicode="B" horiz-adv-x="808" 
d="M266 487q0 -24 11.5 -40.5t29.5 -26.5t39.5 -14t41.5 -4t45 4t47 13.5t36.5 26.5t14.5 44q0 26 -12.5 41.5t-31.5 24t-41.5 11.5t-42.5 3q-21 0 -45 -3.5t-44.5 -12.5t-34 -25t-13.5 -42zM263 199q0 -30 11.5 -50t30 -32t43 -17.5t49.5 -5.5t54 4.5t53.5 16t41 32
t16.5 52.5q0 30 -14.5 50.5t-37 32.5t-49.5 17.5t-53 5.5q-28 0 -54.5 -4t-46.5 -15.5t-32 -32.5t-12 -54zM126 333q0 85 -16 145t-35 97.5t-34.5 55t-14.5 17.5q60 0 118 3.5t110 7t98 7t82 3.5q21 0 51.5 -2t64.5 -8t68 -17.5t61.5 -30t44.5 -45.5t17 -65
q0 -29 -11.5 -51.5t-28 -39.5t-36.5 -28.5t-36.5 -19t-28 -10.5t-11.5 -4t12.5 -3.5t31.5 -8.5t40.5 -16.5t40.5 -27t31.5 -39.5t12.5 -54q0 -70 -34.5 -110t-88 -59.5t-119 -24.5t-128.5 -5h-347q45 75 65 160t20 173z" />
    <glyph glyph-name="C" unicode="C" horiz-adv-x="743" 
d="M654 226q28 0 41 -22.5t13 -46.5q0 -43 -19.5 -77t-56 -58t-88 -37t-115.5 -13q-104 0 -176.5 28t-117.5 75t-65 108t-20 128q0 84 30 150.5t78 113t108.5 71t121.5 24.5q45 0 72 -2.5t45.5 -6t31.5 -6t29 -2.5q28 0 49.5 10.5t49.5 35.5l33 -349q-18 30 -43 68.5t-58 73
t-74 58t-91 23.5q-49 0 -84.5 -21.5t-58 -56t-33 -77.5t-10.5 -87q0 -57 11 -106t36.5 -85.5t67 -57.5t102.5 -21q34 0 62.5 7t49.5 20.5t32.5 33.5t11.5 45q0 9 -0.5 13.5t-1.5 7.5t-2 6.5t-2 9.5q0 12 15.5 17t25.5 5z" />
    <glyph glyph-name="D" unicode="D" horiz-adv-x="851" 
d="M297 305q0 -49 2 -89.5t13 -68.5t33.5 -43.5t62.5 -15.5q42 0 79 18t64 48.5t43 70.5t16 84q0 117 -49.5 183t-149.5 66q-35 0 -55.5 -11.5t-32 -31t-16 -46t-7.5 -56.5q-2 -28 -2.5 -54t-0.5 -54zM29 650h133t118.5 0.5t90.5 0.5h48q86 0 156.5 -21t120.5 -59t77.5 -90
t27.5 -114q0 -64 -19.5 -129.5t-66.5 -119t-126 -87.5t-199 -34q-15 0 -40 0.5t-67 1t-105 1t-153 0.5q24 45 46 89.5t39 89.5t27 90t10 90q0 85 -27 156.5t-91 134.5z" />
    <glyph glyph-name="E" unicode="E" horiz-adv-x="760" 
d="M36 0q18 37 35 74t30 75.5t21 80t8 86.5q0 62 -8 108.5t-22 84.5t-33 71t-42 69h12.5h30.5t63 0.5t109 0.5h168h241l71 -224q-31 27 -64.5 51.5t-68.5 44t-71 31t-72 11.5q-43 0 -74.5 -5t-51.5 -18t-29.5 -36t-9.5 -58q0 -38 16 -61.5t58 -23.5q27 0 50.5 10.5t43.5 26
t35.5 34t26.5 34.5t17 27l6 11v-4v-13.5t-0.5 -33t-1 -63.5t-1 -104.5t-1.5 -155.5q-16 19 -33 41.5t-38 42.5t-46 33.5t-56 13.5q-34 0 -51 -20t-17 -54q0 -31 11.5 -52.5t31 -34.5t44.5 -18.5t53 -5.5q53 0 96 17t80.5 44.5t70.5 62.5t66 72q-20 -99 -31 -153.5t-17 -80.5
t-8 -31.5t-3 -7.5h-645z" />
    <glyph glyph-name="F" unicode="F" horiz-adv-x="733" 
d="M36 0q18 37 35 74t30 75.5t21 80t8 86.5q0 62 -8 108.5t-22 84.5t-33 71t-42 69h14h34.5t67.5 0.5t113.5 0.5h172h242.5l59 -224q-31 27 -67 51.5t-74.5 44t-77.5 31t-75 11.5t-64.5 -5t-49 -18t-31 -36t-10.5 -58q0 -38 31.5 -61.5t94.5 -23.5q40 0 73 17.5t56.5 38.5
t36.5 38.5t13 18.5v-1l-0.5 -3.5t-0.5 -15v-33t-0.5 -58.5t-1 -91.5t-1.5 -131.5q-16 19 -34.5 41.5t-41.5 42t-51 32.5t-63 13q-66 0 -88.5 -24t-22.5 -69q0 -38 22.5 -85t73.5 -92h-339z" />
    <glyph glyph-name="G" unicode="G" horiz-adv-x="782" 
d="M717 352q-21 36 -47 76.5t-58.5 75t-72.5 57t-90 22.5q-55 0 -93.5 -24t-62 -62.5t-34 -86.5t-10.5 -95q0 -50 10.5 -94t33.5 -77t60 -52t90 -19q51 0 75.5 22.5t24.5 71.5q0 42 -24 73t-61 48h33t58.5 0.5t71 0.5t70.5 0.5t56.5 0.5h28.5q0 -1 -5 -10.5t-11.5 -21.5
t-12.5 -24t-8 -18q-17 -46 -24 -92t-7 -94q0 -34 3 -68q-23 13 -47 26.5t-53 13.5q-32 0 -53 -4t-41 -9t-43 -9t-59 -4q-73 0 -139.5 26t-116.5 72t-79.5 110t-29.5 140q0 77 30.5 141t84.5 110.5t127 72.5t157 26q40 0 71.5 -7t67.5 -7q20 0 36 6t28 12.5t19.5 12.5t9.5 6
q5 0 7.5 -16t6 -55.5t8.5 -106t14 -167.5z" />
    <glyph glyph-name="H" unicode="H" horiz-adv-x="877" 
d="M485 0q20 22 38.5 47t33 52t23 55t8.5 55q0 29 -15.5 45.5t-36.5 24.5t-43 10t-36 2h-35q-27 0 -49.5 -2t-38.5 -9.5t-25 -21.5t-9 -38q0 -66 24 -118.5t69 -101.5h-357q28 45 48.5 85t34.5 79.5t21 80t7 85.5q0 66 -7 113t-22 82.5t-38 64.5t-55 60h379
q-17 -22 -35 -46.5t-32.5 -50t-24 -52t-9.5 -53.5q0 -22 10.5 -35t27 -19.5t37 -8.5t39.5 -2h43q20 0 44 1.5t44.5 9t34.5 23t14 43.5q0 57 -28 105t-73 85h356q-22 -33 -41.5 -72.5t-34.5 -82.5t-23.5 -86.5t-8.5 -82.5q0 -48 6 -90t19 -81t32.5 -77t46.5 -78h-363z" />
    <glyph glyph-name="I" unicode="I" horiz-adv-x="425" 
d="M400 650q-22 -33 -42 -68t-35 -72t-23.5 -75.5t-8.5 -78.5q0 -195 109 -356h-374q24 45 45 89.5t37 89.5t25.5 90t9.5 90q0 85 -27 156.5t-91 134.5h375z" />
    <glyph glyph-name="J" unicode="J" horiz-adv-x="619" 
d="M614 650q-24 -31 -41 -56.5t-28.5 -52t-16.5 -55.5t-5 -67q0 -54 7 -108t7 -100q0 -49 -11.5 -94t-37 -79t-65.5 -54.5t-97 -20.5q-21 0 -47 6t-53 12.5t-53 12.5t-46 6q-16 0 -29 -5t-22.5 -11t-16 -11t-9.5 -5q-2 8 -3 20.5l-4 50t-9.5 110.5t-18.5 201
q38 -73 65 -123.5t50.5 -81.5t46.5 -45t53 -14q45 0 71 26t39.5 64t17 80.5t3.5 74.5q0 48 -6 90t-23.5 80t-48.5 75t-82 74h413z" />
    <glyph glyph-name="K" unicode="K" horiz-adv-x="877" 
d="M613 0q-33 20 -45.5 53.5t-16.5 71.5t-4.5 77.5t-8.5 71t-30 51.5t-68 20q-151 0 -151 -148q0 -35 11 -64t30.5 -53t46 -43.5t57.5 -35.5h-403q60 84 83.5 169.5t23.5 179.5q0 51 -4 93t-16 78.5t-34.5 68t-58.5 60.5q164 0 261.5 -0.5t108.5 -0.5q-27 -24 -46 -47.5
t-31 -49t-17.5 -55t-5.5 -64.5q0 -5 2.5 -14t15.5 -9q6 0 24 11t38.5 25t39.5 28.5t28 21.5q17 15 34 37t17 48q0 13 -7 24t-16 19.5t-17.5 15t-11.5 10.5h430q-45 -25 -78 -41.5t-59.5 -29t-50 -25t-51 -29.5t-61.5 -41.5t-81 -61.5q47 0 92.5 -8.5t80.5 -29t56.5 -56
t21.5 -89.5v-12q0 -32 1.5 -63.5t9 -61t24 -55.5t46.5 -47h-210z" />
    <glyph glyph-name="L" unicode="L" horiz-adv-x="695" 
d="M666 0h-259h-175.5h-107.5t-56.5 0.5t-22 1l-3.5 0.5q45 75 74 159.5t29 172.5q0 42 -6.5 85.5t-20.5 84.5t-37 78t-56 67h4h16.5t40.5 0.5t76 0.5h124h183q-44 -29 -77.5 -68t-56 -85t-34 -96.5t-11.5 -103.5q0 -39 8.5 -76t27.5 -65.5t49 -46t72 -17.5q55 0 90.5 24
t60.5 60t43.5 78.5t38.5 79.5z" />
    <glyph glyph-name="M" unicode="M" horiz-adv-x="1019" 
d="M465 650q-18 -19 -29.5 -37.5t-11.5 -44.5q0 -29 7.5 -57t18 -55.5t23 -54t22.5 -52.5q5 -9 12.5 -17.5t16.5 -8.5q15 0 23 10t16 25q14 27 29 54t27 55.5t19.5 59t7.5 64.5q0 12 -4 28t-16 31h365q-43 -75 -68.5 -153t-25.5 -163q0 -47 4.5 -90t15.5 -84t29.5 -80.5
t47.5 -79.5h-373q51 63 82 135.5t31 153.5q0 16 -0.5 34t-2.5 33t-7.5 25t-14.5 10q-10 0 -30.5 -31t-45 -77t-50.5 -100.5t-47 -100.5t-35.5 -77t-15.5 -31t-12.5 30t-29.5 75t-40 98t-43.5 98t-40 75t-29.5 30q-10 0 -15.5 -8t-8.5 -21t-4 -30t-1 -35q0 -81 31.5 -152
t79.5 -134h-333v1q58 69 84.5 153t26.5 175q0 44 -6 89t-20 87t-38.5 79.5t-60.5 65.5h440z" />
    <glyph glyph-name="N" unicode="N" horiz-adv-x="853" 
d="M728 -66q-26 23 -41.5 38t-29.5 30.5t-32 35.5t-51 54.5t-85 87t-134 132.5q-6 6 -15.5 15t-20.5 17t-22 13.5t-22 5.5q-14 0 -21.5 -11t-11 -26t-4 -30t-0.5 -24q0 -38 10 -74.5t26.5 -70.5t38 -65.5t45.5 -61.5h-333q26 37 44.5 71.5t30.5 73t18 84.5t6 106
q0 82 -21 164.5t-77 150.5h320q0 -39 17 -80t43.5 -80t58.5 -73.5t61 -60t51.5 -40.5t30.5 -15q11 0 14 22t3 52q0 81 -28.5 147.5t-88.5 127.5h340q-31 -42 -53.5 -87t-37.5 -91.5t-22 -92.5t-7 -88v-357z" />
    <glyph glyph-name="O" unicode="O" 
d="M241 324q0 -48 10 -93t33 -79.5t60 -55t91 -20.5q52 0 89 20.5t61 54.5t35 78.5t11 91.5q0 45 -8.5 90t-29.5 81t-56 59t-88 23q-54 0 -93.5 -20.5t-65 -55t-37.5 -79.5t-12 -95zM816 324q0 -77 -30 -141t-80.5 -110t-117.5 -71.5t-142 -25.5q-78 0 -150 19.5t-126.5 61
t-87 105.5t-32.5 153q0 86 31 152.5t83.5 111.5t121 68.5t143.5 23.5q83 0 153.5 -22.5t122.5 -66t81.5 -108.5t29.5 -150z" />
    <glyph glyph-name="P" unicode="P" horiz-adv-x="804" 
d="M296 442q0 -31 10.5 -51.5t28.5 -33t42.5 -18t52.5 -5.5q29 0 56 6.5t49 20.5t35 37t13 56q0 27 -14 46.5t-35 32t-46.5 18t-49.5 5.5q-28 0 -53.5 -5.5t-45 -19t-31.5 -35.5t-12 -54zM299 192q0 -25 10.5 -51.5t26 -51.5t33.5 -48t33 -41h-370q35 46 58 90t37 87.5
t20 88t6 91.5q0 49 -7 87.5t-22 72.5t-39.5 65.5t-59.5 65.5q63 1 118 3t105.5 3.5t98 3t94.5 1.5q51 0 109.5 -7.5t108 -29.5t82.5 -62.5t33 -105.5q0 -48 -20.5 -87.5t-54.5 -67.5t-77.5 -43.5t-89.5 -15.5h-177q-23 0 -39.5 -11t-16.5 -37z" />
    <glyph glyph-name="Q" unicode="Q" horiz-adv-x="861" 
d="M241 331q0 -47 10.5 -92.5t34 -81.5t60.5 -58t89 -22q51 0 87.5 21.5t60 56t34.5 78.5t11 89q0 46 -9.5 91t-32 80.5t-59 57.5t-90.5 22q-51 0 -88 -20t-61 -54t-35.5 -77.5t-11.5 -90.5zM412 673q81 0 153.5 -19t127 -60t86.5 -105t32 -155q0 -63 -19.5 -120
t-55.5 -102.5t-87.5 -77.5t-116.5 -45q36 -15 71 -39t69 -50.5t67 -53.5t65.5 -48.5t63.5 -35t62 -13.5q17 0 35 5t32.5 15t23.5 25t9 35q0 24 -12.5 38t-35.5 14q-30 0 -53 -17t-39 -40q-9 15 -9 31q0 17 9 34t23.5 30.5t33 21.5t37.5 8q27 0 50 -9.5t40 -26t26.5 -39
t9.5 -48.5q0 -38 -16.5 -68t-43.5 -51t-60.5 -32t-67.5 -11q-52 0 -101.5 17.5t-96 43.5t-91 57t-87 57t-82 43.5t-77.5 17.5q-18 0 -38.5 -4.5t-38.5 -14.5t-29.5 -26t-11.5 -40q0 -9 4 -17t9 -15t9 -11t4 -5q-9 -3 -17 -3q-27 0 -45 23.5t-18 50.5t10 49.5t26 40.5
t37 32.5t42 25.5q-51 11 -101 37t-89.5 66t-64.5 93.5t-25 119.5q0 97 30.5 167t81.5 115.5t116 67t134 21.5z" />
    <glyph glyph-name="R" unicode="R" horiz-adv-x="833" 
d="M281 489q0 -22 8.5 -38.5t23 -26.5t33 -15t38.5 -5q26 0 53.5 4.5t50.5 16t38 31t15 50.5q0 32 -30 50t-87 18q-21 0 -46 -3t-46.5 -12t-36 -25.5t-14.5 -44.5zM606 0q-21 12 -33 31t-18 41.5t-8.5 46t-5.5 45.5q-4 35 -13.5 62.5t-26.5 46t-43.5 28t-64.5 9.5
q-57 0 -80 -23t-23 -77q0 -40 10 -71t26.5 -55.5t37.5 -45t42 -38.5h-381q32 20 54.5 58t37 82.5t21.5 89t7 77.5q0 45 -4 91.5t-16 90.5t-33.5 85t-57.5 76q65 0 112.5 1.5t84.5 3.5t66 4.5t56.5 4.5t57 3.5t67.5 1.5q23 0 52 -1.5t60 -6.5t60.5 -14.5t52.5 -25.5t37 -39
t14 -56q0 -66 -39 -104.5t-114 -55.5q21 -11 42 -23.5t38 -28t29 -35t16 -44.5q6 -33 11 -66t14.5 -63.5t27.5 -57.5t49 -48h-222z" />
    <glyph glyph-name="S" unicode="S" horiz-adv-x="719" 
d="M667 340q-33 50 -65 92.5t-67.5 74t-76 49t-91.5 17.5q-13 0 -30 -3t-31.5 -10t-24.5 -19.5t-10 -30.5q0 -21 13 -37.5t44.5 -33.5t85 -38.5t133.5 -52.5q58 -22 97.5 -65t39.5 -109q0 -59 -27.5 -98.5t-70 -63t-94 -33.5t-99.5 -10q-55 0 -92 10t-65 21.5t-51.5 21.5
t-50.5 10q-26 0 -47 -9t-44 -23q0 33 -0.5 65t-1 72.5t-1 94t-0.5 129.5q30 -48 59 -101t65 -97.5t83.5 -73.5t114.5 -29q21 0 42 6.5t37.5 18.5t27 30t10.5 42q0 36 -30.5 59.5t-76 42t-99 36.5t-99 41.5t-76 56.5t-30.5 83q0 56 26 92.5t65.5 58.5t87.5 31t92 9
q41 0 72.5 -6.5t61.5 -15t62 -15t72 -6.5q11 0 21.5 3.5t18.5 8t13.5 8t6.5 3.5v-307z" />
    <glyph glyph-name="T" unicode="T" horiz-adv-x="682" 
d="M657 650l1 -27t2 -68t2.5 -90t2.5 -92.5t1.5 -76.5t0.5 -41q-10 15 -20.5 42.5t-22.5 59.5t-25.5 65.5t-30 60.5t-35.5 44.5t-42 17.5q-12 0 -22 -7t-17.5 -18.5t-13 -26.5t-9.5 -30q-9 -36 -12 -83q0 -81 7.5 -137t24 -98t43 -75.5t65.5 -69.5h-441q50 34 79.5 79
t45.5 95t20.5 103t4.5 103q0 14 -2.5 40t-10 52t-21.5 45.5t-38 19.5q-22 0 -42 -16.5t-37.5 -43t-32.5 -58t-27.5 -61t-22.5 -54t-17 -35.5q0 6 2 34t5.5 68t7.5 85.5t7.5 86t5.5 70t2 37.5h612z" />
    <glyph glyph-name="U" unicode="U" horiz-adv-x="774" 
d="M96 208q0 20 0.5 34.5t1 32.5t1 43.5t0.5 68.5q0 39 -4.5 75t-15 69t-28.5 62.5t-46 56.5h355q-23 -37 -40 -72.5t-28 -71t-16.5 -73.5t-5.5 -82q0 -26 0.5 -56t4.5 -60.5t13 -59t25 -50.5t41 -35t61 -13q50 0 78.5 30t42 73t16.5 90.5t3 82.5q0 89 -18 146t-40 90
t-42 46.5t-23 14.5h337q-45 -52 -69.5 -105.5t-24.5 -119.5v-260q0 -49 -26.5 -83.5t-66.5 -56.5t-86.5 -32t-85.5 -10q-60 0 -116.5 10.5t-100.5 36t-70.5 69t-26.5 109.5z" />
    <glyph glyph-name="V" unicode="V" horiz-adv-x="876" 
d="M871 650q-48 -37 -86 -83.5t-67.5 -99t-52 -109t-39.5 -113.5q-13 -45 -23.5 -85.5t-10.5 -88.5q0 -31 5 -50t5 -21h-325q4 25 5.5 40.5t1.5 30.5q0 51 -9.5 98.5t-24.5 95.5q-35 109 -94.5 208t-150.5 177h159.5t107 0.5t72.5 0.5h57q-13 -14 -24.5 -25.5t-20 -24
t-13.5 -27.5t-5 -36q0 -25 5.5 -49.5t13.5 -48t17.5 -46.5t17.5 -44q6 -15 16.5 -36t22.5 -41t24.5 -34t22.5 -14t17 9t12.5 21t10 24.5t8.5 19.5q10 26 20.5 52t19.5 53t14.5 54t5.5 55q0 51 -16 84t-58 53h359z" />
    <glyph glyph-name="W" unicode="W" horiz-adv-x="1111" 
d="M596 0q7 11 12 30.5t5 47.5q0 29 -5 54.5t-13 49.5t-17.5 48.5t-18.5 51.5q-2 6 -8.5 18.5t-17.5 12.5q-7 0 -13 -6.5t-10.5 -15t-8 -17t-5.5 -12.5q-17 -45 -30 -88.5t-13 -91.5q0 -28 7.5 -44t13.5 -38h-294q10 14 17 27t11.5 27t6.5 31.5t2 39.5q0 29 -8 72t-23 93
t-34.5 103t-43.5 102t-50 89.5t-53 65.5h374q-13 -11 -25.5 -23.5t-22 -28.5t-15 -36t-5.5 -46q0 -9 2 -31t6 -50t10 -58t13 -55t16 -41t19 -16q11 0 28.5 30.5t38.5 76.5t42 99t38.5 99t29 76.5t13.5 30.5t14 -31t30 -78t40.5 -101.5t45.5 -101.5t43.5 -78t34.5 -31
q12 0 21 14.5t16 37t12 48.5t8 49t4.5 39.5t1.5 19.5q0 29 -10.5 57t-28 52.5t-40.5 44t-49 32.5h396q-31 -25 -61 -69.5t-56.5 -99t-49 -114t-38.5 -115t-25 -101.5t-9 -74q0 -20 4.5 -38.5t12.5 -38.5h-288z" />
    <glyph glyph-name="X" unicode="X" horiz-adv-x="824" 
d="M773 650q-13 -10 -43 -38.5t-69 -69.5t-84 -90.5t-89 -100.5q38 -52 81.5 -105t88 -100t86 -85.5t75.5 -60.5h-390q6 5 13.5 9.5t13.5 11t10.5 16.5t4.5 26q0 26 -21.5 71.5t-55.5 100.5q-48 -60 -76.5 -107.5t-28.5 -70.5q0 -20 12 -35t17 -22h-170.5t-92.5 0.5t-39 0.5
h-11q32 17 73 49t86 74t91 90.5t88 97.5q-37 54 -78.5 107.5t-81 99.5t-73.5 80.5t-55 50.5h345q-19 -20 -25 -33.5t-6 -35.5q0 -24 18 -64t49 -89q38 51 61 92t23 61q0 11 -2 18.5t-5 15t-8 15.5t-11 20h279z" />
    <glyph glyph-name="Y" unicode="Y" horiz-adv-x="859" 
d="M215 0q23 18 45.5 34.5t39.5 36t27.5 46t10.5 65.5q0 45 -21.5 93t-49.5 90q-30 42 -58 82.5t-59 77.5t-66 68.5t-79 56.5h395q-6 -9 -14.5 -17t-16.5 -18.5t-13.5 -24.5t-5.5 -34q0 -10 12 -38t29 -57t36 -51.5t32 -22.5q12 0 29.5 21t34 50.5t28.5 61t12 53.5
q0 26 -13.5 44t-28.5 33h333q-13 -10 -27.5 -18.5t-35.5 -24t-49.5 -42t-69.5 -72.5q-27 -30 -56 -65.5t-52.5 -75.5t-39 -83t-15.5 -87q0 -60 31.5 -106.5t82.5 -75.5h-408z" />
    <glyph glyph-name="Z" unicode="Z" horiz-adv-x="711" 
d="M694 382q-18 -128 -28 -204t-15 -115.5t-6.5 -51l-1.5 -11.5h-643q52 64 97.5 122t87.5 112q35 45 68 91.5t59 87t42 72.5t16 48q0 19 -12.5 33.5t-33.5 14.5q-35 0 -65.5 -16t-57 -41.5t-49.5 -57.5t-42 -64t-35 -61.5t-29 -49.5q4 43 8 90.5t7.5 94.5t7.5 91.5t9 82.5
h618q-91 -103 -178.5 -214t-159.5 -226q-12 -20 -23 -42.5t-11 -45.5q0 -17 12.5 -30t53.5 -13q40 0 73 15t61 40t51 56.5t43.5 65.5t39 66.5t36.5 59.5z" />
    <glyph glyph-name="bracketleft" unicode="[" horiz-adv-x="367" 
d="M367 699q-25 9 -49 9q-42 0 -68.5 -14.5t-41.5 -58t-20.5 -123t-5.5 -210.5q0 -113 5.5 -183.5t20.5 -109.5t41.5 -53t68.5 -14q24 0 49 9v-101h-317v950h317v-101z" />
    <glyph glyph-name="backslash" unicode="\" horiz-adv-x="413" 
d="M49 784l399 -923l-81 -5l-404 928h86z" />
    <glyph glyph-name="bracketright" unicode="]" horiz-adv-x="367" 
d="M0 800h317v-950h-317v101q26 -9 49 -9q42 0 68.5 14t41.5 53t20.5 109.5t5.5 183.5q0 131 -5.5 210.5t-20.5 123t-41.5 58t-68.5 14.5q-23 0 -49 -9v101z" />
    <glyph glyph-name="asciicircum" unicode="^" horiz-adv-x="435" 
d="M5 419q33 26 57.5 58t40.5 65t24 65t8 58q0 12 -4 23q-1 4 -2 7t-3 7h184q0 -14 -1.5 -23t-1.5 -14q0 -37 9.5 -69.5t26.5 -62.5t40 -58t51 -56h-218q26 17 31.5 28.5t5.5 24.5q0 5 -4 24t-11 41t-16 39t-18 17q-6 0 -12.5 -15.5t-12 -35t-9 -37t-3.5 -22.5
q0 -19 5 -35.5t21 -28.5h-188z" />
    <glyph glyph-name="underscore" unicode="_" horiz-adv-x="399" 
d="M399 55v-114h-399v114h399z" />
    <glyph glyph-name="grave" unicode="`" horiz-adv-x="290" 
d="M142 872l75 -172h-66l-135 172h126z" />
    <glyph glyph-name="a" unicode="a" horiz-adv-x="865" 
d="M301 293q0 -17 9 -30t28 -13h109q21 0 31.5 14.5t10.5 34.5q0 16 -9.5 45.5t-23.5 58.5t-30.5 50.5t-30.5 21.5q-15 0 -31.5 -24.5t-30.5 -56t-23 -61t-9 -40.5zM5 0q43 55 82 117.5t69 129.5t47.5 138t17.5 143q0 30 -3 61t-11 61h398l1 -1q-2 -14 -2 -27v-27
q0 -85 21.5 -163.5t57.5 -152.5t82 -143.5t95 -135.5h-317q11 18 18.5 36t7.5 41q0 26 -13 41t-33 22.5t-44 9t-46 1.5h-21q-27 0 -53.5 -1.5t-47.5 -8t-34 -20t-13 -36.5q0 -22 10 -44.5t24 -40.5h-293z" />
    <glyph glyph-name="b" unicode="b" horiz-adv-x="808" 
d="M266 487q0 -24 11.5 -40.5t29.5 -26.5t39.5 -14t41.5 -4t45 4t47 13.5t36.5 26.5t14.5 44q0 26 -12.5 41.5t-31.5 24t-41.5 11.5t-42.5 3q-21 0 -45 -3.5t-44.5 -12.5t-34 -25t-13.5 -42zM263 199q0 -30 11.5 -50t30 -32t43 -17.5t49.5 -5.5t54 4.5t53.5 16t41 32
t16.5 52.5q0 30 -14.5 50.5t-37 32.5t-49.5 17.5t-53 5.5q-28 0 -54.5 -4t-46.5 -15.5t-32 -32.5t-12 -54zM126 333q0 85 -16 145t-35 97.5t-34.5 55t-14.5 17.5q60 0 118 3.5t110 7t98 7t82 3.5q21 0 51.5 -2t64.5 -8t68 -17.5t61.5 -30t44.5 -45.5t17 -65
q0 -29 -11.5 -51.5t-28 -39.5t-36.5 -28.5t-36.5 -19t-28 -10.5t-11.5 -4t12.5 -3.5t31.5 -8.5t40.5 -16.5t40.5 -27t31.5 -39.5t12.5 -54q0 -70 -34.5 -110t-88 -59.5t-119 -24.5t-128.5 -5h-347q45 75 65 160t20 173z" />
    <glyph glyph-name="c" unicode="c" horiz-adv-x="743" 
d="M654 226q28 0 41 -22.5t13 -46.5q0 -43 -19.5 -77t-56 -58t-88 -37t-115.5 -13q-104 0 -176.5 28t-117.5 75t-65 108t-20 128q0 84 30 150.5t78 113t108.5 71t121.5 24.5q45 0 72 -2.5t45.5 -6t31.5 -6t29 -2.5q28 0 49.5 10.5t49.5 35.5l33 -349q-18 30 -43 68.5t-58 73
t-74 58t-91 23.5q-49 0 -84.5 -21.5t-58 -56t-33 -77.5t-10.5 -87q0 -57 11 -106t36.5 -85.5t67 -57.5t102.5 -21q34 0 62.5 7t49.5 20.5t32.5 33.5t11.5 45q0 9 -0.5 13.5t-1.5 7.5t-2 6.5t-2 9.5q0 12 15.5 17t25.5 5z" />
    <glyph glyph-name="d" unicode="d" horiz-adv-x="851" 
d="M297 305q0 -49 2 -89.5t13 -68.5t33.5 -43.5t62.5 -15.5q42 0 79 18t64 48.5t43 70.5t16 84q0 117 -49.5 183t-149.5 66q-35 0 -55.5 -11.5t-32 -31t-16 -46t-7.5 -56.5q-2 -28 -2.5 -54t-0.5 -54zM29 650h133t118.5 0.5t90.5 0.5h48q86 0 156.5 -21t120.5 -59t77.5 -90
t27.5 -114q0 -64 -19.5 -129.5t-66.5 -119t-126 -87.5t-199 -34q-15 0 -40 0.5t-67 1t-105 1t-153 0.5q24 45 46 89.5t39 89.5t27 90t10 90q0 85 -27 156.5t-91 134.5z" />
    <glyph glyph-name="e" unicode="e" horiz-adv-x="760" 
d="M36 0q18 37 35 74t30 75.5t21 80t8 86.5q0 62 -8 108.5t-22 84.5t-33 71t-42 69h12.5h30.5t63 0.5t109 0.5h168h241l71 -224q-31 27 -64.5 51.5t-68.5 44t-71 31t-72 11.5q-43 0 -74.5 -5t-51.5 -18t-29.5 -36t-9.5 -58q0 -38 16 -61.5t58 -23.5q27 0 50.5 10.5t43.5 26
t35.5 34t26.5 34.5t17 27l6 11v-4v-13.5t-0.5 -33t-1 -63.5t-1 -104.5t-1.5 -155.5q-16 19 -33 41.5t-38 42.5t-46 33.5t-56 13.5q-34 0 -51 -20t-17 -54q0 -31 11.5 -52.5t31 -34.5t44.5 -18.5t53 -5.5q53 0 96 17t80.5 44.5t70.5 62.5t66 72q-20 -99 -31 -153.5t-17 -80.5
t-8 -31.5t-3 -7.5h-645z" />
    <glyph glyph-name="f" unicode="f" horiz-adv-x="733" 
d="M36 0q18 37 35 74t30 75.5t21 80t8 86.5q0 62 -8 108.5t-22 84.5t-33 71t-42 69h14h34.5t67.5 0.5t113.5 0.5h172h242.5l59 -224q-31 27 -67 51.5t-74.5 44t-77.5 31t-75 11.5t-64.5 -5t-49 -18t-31 -36t-10.5 -58q0 -38 31.5 -61.5t94.5 -23.5q40 0 73 17.5t56.5 38.5
t36.5 38.5t13 18.5v-1l-0.5 -3.5t-0.5 -15v-33t-0.5 -58.5t-1 -91.5t-1.5 -131.5q-16 19 -34.5 41.5t-41.5 42t-51 32.5t-63 13q-66 0 -88.5 -24t-22.5 -69q0 -38 22.5 -85t73.5 -92h-339z" />
    <glyph glyph-name="g" unicode="g" horiz-adv-x="782" 
d="M717 352q-21 36 -47 76.5t-58.5 75t-72.5 57t-90 22.5q-55 0 -93.5 -24t-62 -62.5t-34 -86.5t-10.5 -95q0 -50 10.5 -94t33.5 -77t60 -52t90 -19q51 0 75.5 22.5t24.5 71.5q0 42 -24 73t-61 48h33t58.5 0.5t71 0.5t70.5 0.5t56.5 0.5h28.5q0 -1 -5 -10.5t-11.5 -21.5
t-12.5 -24t-8 -18q-17 -46 -24 -92t-7 -94q0 -34 3 -68q-23 13 -47 26.5t-53 13.5q-32 0 -53 -4t-41 -9t-43 -9t-59 -4q-73 0 -139.5 26t-116.5 72t-79.5 110t-29.5 140q0 77 30.5 141t84.5 110.5t127 72.5t157 26q40 0 71.5 -7t67.5 -7q20 0 36 6t28 12.5t19.5 12.5t9.5 6
q5 0 7.5 -16t6 -55.5t8.5 -106t14 -167.5z" />
    <glyph glyph-name="h" unicode="h" horiz-adv-x="877" 
d="M485 0q20 22 38.5 47t33 52t23 55t8.5 55q0 29 -15.5 45.5t-36.5 24.5t-43 10t-36 2h-35q-27 0 -49.5 -2t-38.5 -9.5t-25 -21.5t-9 -38q0 -66 24 -118.5t69 -101.5h-357q28 45 48.5 85t34.5 79.5t21 80t7 85.5q0 66 -7 113t-22 82.5t-38 64.5t-55 60h379
q-17 -22 -35 -46.5t-32.5 -50t-24 -52t-9.5 -53.5q0 -22 10.5 -35t27 -19.5t37 -8.5t39.5 -2h43q20 0 44 1.5t44.5 9t34.5 23t14 43.5q0 57 -28 105t-73 85h356q-22 -33 -41.5 -72.5t-34.5 -82.5t-23.5 -86.5t-8.5 -82.5q0 -48 6 -90t19 -81t32.5 -77t46.5 -78h-363z" />
    <glyph glyph-name="i" unicode="i" horiz-adv-x="425" 
d="M400 650q-22 -33 -42 -68t-35 -72t-23.5 -75.5t-8.5 -78.5q0 -195 109 -356h-374q24 45 45 89.5t37 89.5t25.5 90t9.5 90q0 85 -27 156.5t-91 134.5h375z" />
    <glyph glyph-name="j" unicode="j" horiz-adv-x="619" 
d="M614 650q-24 -31 -41 -56.5t-28.5 -52t-16.5 -55.5t-5 -67q0 -54 7 -108t7 -100q0 -49 -11.5 -94t-37 -79t-65.5 -54.5t-97 -20.5q-21 0 -47 6t-53 12.5t-53 12.5t-46 6q-16 0 -29 -5t-22.5 -11t-16 -11t-9.5 -5q-2 8 -3 20.5l-4 50t-9.5 110.5t-18.5 201
q38 -73 65 -123.5t50.5 -81.5t46.5 -45t53 -14q45 0 71 26t39.5 64t17 80.5t3.5 74.5q0 48 -6 90t-23.5 80t-48.5 75t-82 74h413z" />
    <glyph glyph-name="k" unicode="k" horiz-adv-x="877" 
d="M613 0q-33 20 -45.5 53.5t-16.5 71.5t-4.5 77.5t-8.5 71t-30 51.5t-68 20q-151 0 -151 -148q0 -35 11 -64t30.5 -53t46 -43.5t57.5 -35.5h-403q60 84 83.5 169.5t23.5 179.5q0 51 -4 93t-16 78.5t-34.5 68t-58.5 60.5q164 0 261.5 -0.5t108.5 -0.5q-27 -24 -46 -47.5
t-31 -49t-17.5 -55t-5.5 -64.5q0 -5 2.5 -14t15.5 -9q6 0 24 11t38.5 25t39.5 28.5t28 21.5q17 15 34 37t17 48q0 13 -7 24t-16 19.5t-17.5 15t-11.5 10.5h430q-45 -25 -78 -41.5t-59.5 -29t-50 -25t-51 -29.5t-61.5 -41.5t-81 -61.5q47 0 92.5 -8.5t80.5 -29t56.5 -56
t21.5 -89.5v-12q0 -32 1.5 -63.5t9 -61t24 -55.5t46.5 -47h-210z" />
    <glyph glyph-name="l" unicode="l" horiz-adv-x="695" 
d="M666 0h-259h-175.5h-107.5t-56.5 0.5t-22 1l-3.5 0.5q45 75 74 159.5t29 172.5q0 42 -6.5 85.5t-20.5 84.5t-37 78t-56 67h4h16.5t40.5 0.5t76 0.5h124h183q-44 -29 -77.5 -68t-56 -85t-34 -96.5t-11.5 -103.5q0 -39 8.5 -76t27.5 -65.5t49 -46t72 -17.5q55 0 90.5 24
t60.5 60t43.5 78.5t38.5 79.5z" />
    <glyph glyph-name="m" unicode="m" horiz-adv-x="1019" 
d="M465 650q-18 -19 -29.5 -37.5t-11.5 -44.5q0 -29 7.5 -57t18 -55.5t23 -54t22.5 -52.5q5 -9 12.5 -17.5t16.5 -8.5q15 0 23 10t16 25q14 27 29 54t27 55.5t19.5 59t7.5 64.5q0 12 -4 28t-16 31h365q-43 -75 -68.5 -153t-25.5 -163q0 -47 4.5 -90t15.5 -84t29.5 -80.5
t47.5 -79.5h-373q51 63 82 135.5t31 153.5q0 16 -0.5 34t-2.5 33t-7.5 25t-14.5 10q-10 0 -30.5 -31t-45 -77t-50.5 -100.5t-47 -100.5t-35.5 -77t-15.5 -31t-12.5 30t-29.5 75t-40 98t-43.5 98t-40 75t-29.5 30q-10 0 -15.5 -8t-8.5 -21t-4 -30t-1 -35q0 -81 31.5 -152
t79.5 -134h-333v1q58 69 84.5 153t26.5 175q0 44 -6 89t-20 87t-38.5 79.5t-60.5 65.5h440z" />
    <glyph glyph-name="n" unicode="n" horiz-adv-x="853" 
d="M728 -66q-26 23 -41.5 38t-29.5 30.5t-32 35.5t-51 54.5t-85 87t-134 132.5q-6 6 -15.5 15t-20.5 17t-22 13.5t-22 5.5q-14 0 -21.5 -11t-11 -26t-4 -30t-0.5 -24q0 -38 10 -74.5t26.5 -70.5t38 -65.5t45.5 -61.5h-333q26 37 44.5 71.5t30.5 73t18 84.5t6 106
q0 82 -21 164.5t-77 150.5h320q0 -39 17 -80t43.5 -80t58.5 -73.5t61 -60t51.5 -40.5t30.5 -15q11 0 14 22t3 52q0 81 -28.5 147.5t-88.5 127.5h340q-31 -42 -53.5 -87t-37.5 -91.5t-22 -92.5t-7 -88v-357z" />
    <glyph glyph-name="o" unicode="o" 
d="M241 324q0 -48 10 -93t33 -79.5t60 -55t91 -20.5q52 0 89 20.5t61 54.5t35 78.5t11 91.5q0 45 -8.5 90t-29.5 81t-56 59t-88 23q-54 0 -93.5 -20.5t-65 -55t-37.5 -79.5t-12 -95zM816 324q0 -77 -30 -141t-80.5 -110t-117.5 -71.5t-142 -25.5q-78 0 -150 19.5t-126.5 61
t-87 105.5t-32.5 153q0 86 31 152.5t83.5 111.5t121 68.5t143.5 23.5q83 0 153.5 -22.5t122.5 -66t81.5 -108.5t29.5 -150z" />
    <glyph glyph-name="p" unicode="p" horiz-adv-x="804" 
d="M296 442q0 -31 10.5 -51.5t28.5 -33t42.5 -18t52.5 -5.5q29 0 56 6.5t49 20.5t35 37t13 56q0 27 -14 46.5t-35 32t-46.5 18t-49.5 5.5q-28 0 -53.5 -5.5t-45 -19t-31.5 -35.5t-12 -54zM299 192q0 -25 10.5 -51.5t26 -51.5t33.5 -48t33 -41h-370q35 46 58 90t37 87.5
t20 88t6 91.5q0 49 -7 87.5t-22 72.5t-39.5 65.5t-59.5 65.5q63 1 118 3t105.5 3.5t98 3t94.5 1.5q51 0 109.5 -7.5t108 -29.5t82.5 -62.5t33 -105.5q0 -48 -20.5 -87.5t-54.5 -67.5t-77.5 -43.5t-89.5 -15.5h-177q-23 0 -39.5 -11t-16.5 -37z" />
    <glyph glyph-name="q" unicode="q" horiz-adv-x="861" 
d="M241 331q0 -47 10.5 -92.5t34 -81.5t60.5 -58t89 -22q51 0 87.5 21.5t60 56t34.5 78.5t11 89q0 46 -9.5 91t-32 80.5t-59 57.5t-90.5 22q-51 0 -88 -20t-61 -54t-35.5 -77.5t-11.5 -90.5zM412 673q81 0 153.5 -19t127 -60t86.5 -105t32 -155q0 -63 -19.5 -120
t-55.5 -102.5t-87.5 -77.5t-116.5 -45q36 -15 71 -39t69 -50.5t67 -53.5t65.5 -48.5t63.5 -35t62 -13.5q17 0 35 5t32.5 15t23.5 25t9 35q0 24 -12.5 38t-35.5 14q-30 0 -53 -17t-39 -40q-9 15 -9 31q0 17 9 34t23.5 30.5t33 21.5t37.5 8q27 0 50 -9.5t40 -26t26.5 -39
t9.5 -48.5q0 -38 -16.5 -68t-43.5 -51t-60.5 -32t-67.5 -11q-52 0 -101.5 17.5t-96 43.5t-91 57t-87 57t-82 43.5t-77.5 17.5q-18 0 -38.5 -4.5t-38.5 -14.5t-29.5 -26t-11.5 -40q0 -9 4 -17t9 -15t9 -11t4 -5q-9 -3 -17 -3q-27 0 -45 23.5t-18 50.5t10 49.5t26 40.5
t37 32.5t42 25.5q-51 11 -101 37t-89.5 66t-64.5 93.5t-25 119.5q0 97 30.5 167t81.5 115.5t116 67t134 21.5z" />
    <glyph glyph-name="r" unicode="r" horiz-adv-x="833" 
d="M281 489q0 -22 8.5 -38.5t23 -26.5t33 -15t38.5 -5q26 0 53.5 4.5t50.5 16t38 31t15 50.5q0 32 -30 50t-87 18q-21 0 -46 -3t-46.5 -12t-36 -25.5t-14.5 -44.5zM606 0q-21 12 -33 31t-18 41.5t-8.5 46t-5.5 45.5q-4 35 -13.5 62.5t-26.5 46t-43.5 28t-64.5 9.5
q-57 0 -80 -23t-23 -77q0 -40 10 -71t26.5 -55.5t37.5 -45t42 -38.5h-381q32 20 54.5 58t37 82.5t21.5 89t7 77.5q0 45 -4 91.5t-16 90.5t-33.5 85t-57.5 76q65 0 112.5 1.5t84.5 3.5t66 4.5t56.5 4.5t57 3.5t67.5 1.5q23 0 52 -1.5t60 -6.5t60.5 -14.5t52.5 -25.5t37 -39
t14 -56q0 -66 -39 -104.5t-114 -55.5q21 -11 42 -23.5t38 -28t29 -35t16 -44.5q6 -33 11 -66t14.5 -63.5t27.5 -57.5t49 -48h-222z" />
    <glyph glyph-name="s" unicode="s" horiz-adv-x="719" 
d="M667 340q-33 50 -65 92.5t-67.5 74t-76 49t-91.5 17.5q-13 0 -30 -3t-31.5 -10t-24.5 -19.5t-10 -30.5q0 -21 13 -37.5t44.5 -33.5t85 -38.5t133.5 -52.5q58 -22 97.5 -65t39.5 -109q0 -59 -27.5 -98.5t-70 -63t-94 -33.5t-99.5 -10q-55 0 -92 10t-65 21.5t-51.5 21.5
t-50.5 10q-26 0 -47 -9t-44 -23q0 33 -0.5 65t-1 72.5t-1 94t-0.5 129.5q30 -48 59 -101t65 -97.5t83.5 -73.5t114.5 -29q21 0 42 6.5t37.5 18.5t27 30t10.5 42q0 36 -30.5 59.5t-76 42t-99 36.5t-99 41.5t-76 56.5t-30.5 83q0 56 26 92.5t65.5 58.5t87.5 31t92 9
q41 0 72.5 -6.5t61.5 -15t62 -15t72 -6.5q11 0 21.5 3.5t18.5 8t13.5 8t6.5 3.5v-307z" />
    <glyph glyph-name="t" unicode="t" horiz-adv-x="682" 
d="M657 650l1 -27t2 -68t2.5 -90t2.5 -92.5t1.5 -76.5t0.5 -41q-10 15 -20.5 42.5t-22.5 59.5t-25.5 65.5t-30 60.5t-35.5 44.5t-42 17.5q-12 0 -22 -7t-17.5 -18.5t-13 -26.5t-9.5 -30q-9 -36 -12 -83q0 -81 7.5 -137t24 -98t43 -75.5t65.5 -69.5h-441q50 34 79.5 79
t45.5 95t20.5 103t4.5 103q0 14 -2.5 40t-10 52t-21.5 45.5t-38 19.5q-22 0 -42 -16.5t-37.5 -43t-32.5 -58t-27.5 -61t-22.5 -54t-17 -35.5q0 6 2 34t5.5 68t7.5 85.5t7.5 86t5.5 70t2 37.5h612z" />
    <glyph glyph-name="u" unicode="u" horiz-adv-x="774" 
d="M96 208q0 20 0.5 34.5t1 32.5t1 43.5t0.5 68.5q0 39 -4.5 75t-15 69t-28.5 62.5t-46 56.5h355q-23 -37 -40 -72.5t-28 -71t-16.5 -73.5t-5.5 -82q0 -26 0.5 -56t4.5 -60.5t13 -59t25 -50.5t41 -35t61 -13q50 0 78.5 30t42 73t16.5 90.5t3 82.5q0 89 -18 146t-40 90
t-42 46.5t-23 14.5h337q-45 -52 -69.5 -105.5t-24.5 -119.5v-260q0 -49 -26.5 -83.5t-66.5 -56.5t-86.5 -32t-85.5 -10q-60 0 -116.5 10.5t-100.5 36t-70.5 69t-26.5 109.5z" />
    <glyph glyph-name="v" unicode="v" horiz-adv-x="876" 
d="M871 650q-48 -37 -86 -83.5t-67.5 -99t-52 -109t-39.5 -113.5q-13 -45 -23.5 -85.5t-10.5 -88.5q0 -31 5 -50t5 -21h-325q4 25 5.5 40.5t1.5 30.5q0 51 -9.5 98.5t-24.5 95.5q-35 109 -94.5 208t-150.5 177h159.5t107 0.5t72.5 0.5h57q-13 -14 -24.5 -25.5t-20 -24
t-13.5 -27.5t-5 -36q0 -25 5.5 -49.5t13.5 -48t17.5 -46.5t17.5 -44q6 -15 16.5 -36t22.5 -41t24.5 -34t22.5 -14t17 9t12.5 21t10 24.5t8.5 19.5q10 26 20.5 52t19.5 53t14.5 54t5.5 55q0 51 -16 84t-58 53h359z" />
    <glyph glyph-name="w" unicode="w" horiz-adv-x="1111" 
d="M596 0q7 11 12 30.5t5 47.5q0 29 -5 54.5t-13 49.5t-17.5 48.5t-18.5 51.5q-2 6 -8.5 18.5t-17.5 12.5q-7 0 -13 -6.5t-10.5 -15t-8 -17t-5.5 -12.5q-17 -45 -30 -88.5t-13 -91.5q0 -28 7.5 -44t13.5 -38h-294q10 14 17 27t11.5 27t6.5 31.5t2 39.5q0 29 -8 72t-23 93
t-34.5 103t-43.5 102t-50 89.5t-53 65.5h374q-13 -11 -25.5 -23.5t-22 -28.5t-15 -36t-5.5 -46q0 -9 2 -31t6 -50t10 -58t13 -55t16 -41t19 -16q11 0 28.5 30.5t38.5 76.5t42 99t38.5 99t29 76.5t13.5 30.5t14 -31t30 -78t40.5 -101.5t45.5 -101.5t43.5 -78t34.5 -31
q12 0 21 14.5t16 37t12 48.5t8 49t4.5 39.5t1.5 19.5q0 29 -10.5 57t-28 52.5t-40.5 44t-49 32.5h396q-31 -25 -61 -69.5t-56.5 -99t-49 -114t-38.5 -115t-25 -101.5t-9 -74q0 -20 4.5 -38.5t12.5 -38.5h-288z" />
    <glyph glyph-name="x" unicode="x" horiz-adv-x="824" 
d="M773 650q-13 -10 -43 -38.5t-69 -69.5t-84 -90.5t-89 -100.5q38 -52 81.5 -105t88 -100t86 -85.5t75.5 -60.5h-390q6 5 13.5 9.5t13.5 11t10.5 16.5t4.5 26q0 26 -21.5 71.5t-55.5 100.5q-48 -60 -76.5 -107.5t-28.5 -70.5q0 -20 12 -35t17 -22h-170.5t-92.5 0.5t-39 0.5
h-11q32 17 73 49t86 74t91 90.5t88 97.5q-37 54 -78.5 107.5t-81 99.5t-73.5 80.5t-55 50.5h345q-19 -20 -25 -33.5t-6 -35.5q0 -24 18 -64t49 -89q38 51 61 92t23 61q0 11 -2 18.5t-5 15t-8 15.5t-11 20h279z" />
    <glyph glyph-name="y" unicode="y" horiz-adv-x="859" 
d="M215 0q23 18 45.5 34.5t39.5 36t27.5 46t10.5 65.5q0 45 -21.5 93t-49.5 90q-30 42 -58 82.5t-59 77.5t-66 68.5t-79 56.5h395q-6 -9 -14.5 -17t-16.5 -18.5t-13.5 -24.5t-5.5 -34q0 -10 12 -38t29 -57t36 -51.5t32 -22.5q12 0 29.5 21t34 50.5t28.5 61t12 53.5
q0 26 -13.5 44t-28.5 33h333q-13 -10 -27.5 -18.5t-35.5 -24t-49.5 -42t-69.5 -72.5q-27 -30 -56 -65.5t-52.5 -75.5t-39 -83t-15.5 -87q0 -60 31.5 -106.5t82.5 -75.5h-408z" />
    <glyph glyph-name="z" unicode="z" horiz-adv-x="711" 
d="M694 382q-18 -128 -28 -204t-15 -115.5t-6.5 -51l-1.5 -11.5h-643q52 64 97.5 122t87.5 112q35 45 68 91.5t59 87t42 72.5t16 48q0 19 -12.5 33.5t-33.5 14.5q-35 0 -65.5 -16t-57 -41.5t-49.5 -57.5t-42 -64t-35 -61.5t-29 -49.5q4 43 8 90.5t7.5 94.5t7.5 91.5t9 82.5
h618q-91 -103 -178.5 -214t-159.5 -226q-12 -20 -23 -42.5t-11 -45.5q0 -17 12.5 -30t53.5 -13q40 0 73 15t61 40t51 56.5t43.5 65.5t39 66.5t36.5 59.5z" />
    <glyph glyph-name="braceleft" unicode="{" horiz-adv-x="984" 
d="M297 289q0 -24 -11 -41.5t-28 -29t-38.5 -17.5t-41.5 -6q-28 0 -52.5 9t-42.5 25.5t-28.5 39.5t-10.5 51q0 38 17 67.5t44 50t60.5 31.5t66.5 11q54 0 104 -17t97.5 -43t92.5 -55.5t88 -55.5t85 -43t83 -17q5 0 20 2t31 6t28 10.5t12 15.5q-15 7 -27.5 16.5t-12.5 29.5
q0 26 17 41.5t43 15.5q32 0 48.5 -22t16.5 -52q0 -45 -22 -76t-56 -49.5t-75.5 -27t-79.5 -8.5q-46 0 -90 18t-87 45t-84 59t-81 59t-79 45t-78 18q-17 0 -35.5 -5.5t-33.5 -15.5t-24.5 -25t-9.5 -34q0 -17 12.5 -33.5t41.5 -16.5q-2 11 -3.5 18.5t-1.5 14.5q0 21 15.5 39
t38.5 18q28 0 49.5 -18t21.5 -48z" />
    <glyph glyph-name="bar" unicode="|" horiz-adv-x="231" 
d="M171 778v-933h-114v933h114z" />
    <glyph glyph-name="braceright" unicode="}" horiz-adv-x="984" 
d="M705 289q0 30 21.5 48t49.5 18q23 0 38.5 -18t15.5 -39q0 -7 -1.5 -14.5t-3.5 -18.5q29 0 41.5 16.5t12.5 33.5q0 19 -9.5 34t-24.5 25t-33.5 15.5t-35.5 5.5q-39 0 -78 -18t-79 -45t-81 -59t-84 -59t-87 -45t-90 -18q-38 0 -79.5 8.5t-75.5 27t-56 49.5t-22 76
q0 30 16.5 52t48.5 22q26 0 43 -15.5t17 -41.5q0 -20 -12.5 -29.5t-27.5 -16.5q0 -9 12.5 -15.5t28 -10.5t30.5 -6t20 -2q41 0 83 17t85 43t88 55.5t92.5 55.5t98 43t103.5 17q33 0 66.5 -11t60.5 -31.5t44 -50t17 -67.5q0 -28 -10.5 -51t-28.5 -39.5t-42.5 -25.5t-52.5 -9
q-20 0 -41 6t-38.5 17.5t-28.5 29t-11 41.5z" />
    <glyph glyph-name="asciitilde" unicode="~" horiz-adv-x="537" 
d="M470 620q37 0 37 -68q0 -22 -12 -39t-30.5 -28t-40 -17t-41.5 -6q-30 0 -61.5 14t-63 31.5t-64 31.5t-64.5 14q-8 0 -24.5 -3t-23.5 -12q8 -3 14 -9t6 -19q0 -14 -10 -23t-26 -9q-38 0 -38 67q0 22 12 39t30 28t40 17t42 6q31 0 63.5 -14t65 -31.5t64.5 -31.5t62 -14
q8 0 24 3.5t23 11.5q-8 3 -14 9.5t-6 18.5q0 14 9.5 23.5t26.5 9.5z" />
    <glyph glyph-name="uni00A0" unicode="&#xa0;" horiz-adv-x="202" 
 />
    <glyph glyph-name="exclamdown" unicode="&#xa1;" horiz-adv-x="315" 
d="M244 587q0 -18 -8 -32.5t-20.5 -24.5t-29 -15t-33.5 -5q-16 0 -30 7t-24.5 19t-16.5 26.5t-6 29.5q0 37 24 58.5t59 21.5q38 0 61.5 -23.5t23.5 -61.5zM270 122q0 -25 -6 -50.5t-19.5 -46t-34.5 -33t-51 -12.5q-31 0 -53 12t-35.5 31.5t-19.5 45t-6 53.5q0 88 31.5 173.5
t82.5 154.5q23 -35 43 -75t35 -82t24 -85.5t9 -85.5z" />
    <glyph glyph-name="cent" unicode="&#xa2;" horiz-adv-x="480" 
d="M228 109q-54 7 -91.5 27.5t-61 50t-34 66.5t-10.5 76q0 50 17 91.5t44.5 71.5t63 48.5t72.5 22.5v88h62v-87q17 -1 28.5 -3t20 -3.5t15.5 -2.5t16 -1q19 0 34.5 4t33.5 21l8 -215q-11 19 -26 43t-34.5 45t-45 35t-58.5 14q-32 0 -55 -14t-38 -36.5t-22 -51t-7 -57.5
q0 -37 7.5 -69.5t24 -56.5t44 -37.5t67.5 -13.5q92 0 92 69q0 11 -1.5 14t-2.5 11q0 8 10.5 11t16.5 3q18 0 27 -14.5t9 -30.5q0 -55 -41.5 -87.5t-122.5 -34.5v-106h-62v109z" />
    <glyph glyph-name="sterling" unicode="&#xa3;" horiz-adv-x="695" 
d="M666 0h-259h-175.5h-107.5t-56.5 0.5t-22 1l-3.5 0.5q30 52 54.5 109.5t37.5 118.5h-93v97h104v7q0 11 -0.5 22.5t-1.5 22.5h-102v97h85q-14 49 -38.5 93.5t-62.5 79.5h4h16.5t40.5 0.5t76 0.5h124h183q-49 -33 -84.5 -77.5t-58.5 -96.5h218v-95h-247q-4 -27 -6 -54h253
v-95h-248q6 -29 17.5 -54.5t30 -44.5t44 -30t59.5 -11q55 0 90.5 24t60.5 60t43.5 78.5t38.5 79.5z" />
    <glyph glyph-name="currency" unicode="&#xa4;" horiz-adv-x="743" 
d="M541 182h-270q23 -57 68.5 -89t123.5 -32q34 0 62.5 7t49.5 20.5t32.5 33.5t11.5 45q0 9 -0.5 13.5t-1.5 7.5t-2 6.5t-2 9.5q0 12 15.5 17t25.5 5q28 0 41 -22.5t13 -46.5q0 -43 -19.5 -77t-56 -58t-88 -37t-115.5 -13q-78 0 -138 16t-103.5 44t-72.5 66.5t-45 83.5h-89
l20 94h50q-1 8 -1 17v18v10.5t1 10.5h-50l20 94h46q18 58 52 103t77 76.5t93 48t99 16.5q45 0 72 -2.5t45.5 -6t31.5 -6t29 -2.5q28 0 49.5 10.5t49.5 35.5l33 -349q-18 30 -43 68.5t-58 73t-74 58t-91 23.5q-36 0 -64 -11.5t-49.5 -31.5t-36 -47t-23.5 -57h322l-20 -94
h-315v-1v-28t2 -27h313z" />
    <glyph glyph-name="yen" unicode="&#xa5;" horiz-adv-x="859" 
d="M775 274h-249q-11 -29 -15 -56h264v-95l-257 -1q13 -38 40.5 -69.5t64.5 -52.5h-408q18 14 35.5 26.5t32.5 26.5t27 30.5t19 38.5h-267v96h272q-3 14 -7 28t-10 28h-255v93h203q-30 42 -58 82t-58.5 76.5t-65 68t-78.5 56.5h395q-6 -9 -14.5 -17t-16.5 -18.5t-13.5 -24.5
t-5.5 -34q0 -10 12 -38t29 -57t36 -51.5t32 -22.5q12 0 29.5 21t34 50.5t28.5 61t12 53.5q0 26 -13.5 44t-28.5 33h333q-13 -10 -27.5 -18.5t-35.5 -24t-49.5 -42t-69.5 -72.5q-25 -28 -50.5 -59.5t-48.5 -66.5h202v-93z" />
    <glyph glyph-name="brokenbar" unicode="&#xa6;" horiz-adv-x="231" 
d="M171 778v-328h-114v328h114zM57 -155v355h114v-355h-114z" />
    <glyph glyph-name="section" unicode="&#xa7;" horiz-adv-x="590" 
d="M209 343q0 -12 7 -22t23 -20.5t42 -22t64 -26.5q22 7 37 22.5t15 40.5q0 18 -16 34h1q-22 17 -48 26.5t-58 9.5q-10 0 -21.5 -2t-21.5 -7t-17 -13t-7 -20zM547 436q-26 39 -51.5 73t-52.5 58.5t-57.5 39t-67.5 14.5q-10 0 -21.5 -2t-21.5 -7t-17 -13t-7 -20
q0 -14 10.5 -25.5t34 -24.5t62.5 -28.5t96 -37.5q44 -17 75 -51t31 -84q0 -51 -26.5 -83.5t-65.5 -49.5q23 -19 36.5 -44.5t13.5 -58.5q0 -45 -21 -75.5t-53.5 -49t-72 -26t-75.5 -7.5q-48 0 -79.5 10t-54.5 20q-16 7 -30.5 12t-29.5 5q-18 0 -35.5 -8t-37.5 -20
q-2 64 -1.5 141t-0.5 155q8 -12 19 -31t19 -32q18 -32 37.5 -63t44 -56t55 -40t70.5 -15q31 0 57 17t26 50q0 16 -11 29t-29 23.5t-41.5 20t-49.5 18.5q-31 12 -62.5 24.5t-56.5 29.5t-41 39.5t-16 54.5q0 56 33 88t79 46q-32 18 -51 42t-19 59q0 43 20 71.5t50.5 45.5
t67 24t69.5 7q30 0 54 -5t46.5 -11t46 -11t53.5 -5q17 0 29 8t21 10v-251z" />
    <glyph glyph-name="dieresis" unicode="&#xa8;" horiz-adv-x="339" 
d="M188 761q0 26 20 40t44 14q23 0 38.5 -18t15.5 -39q0 -26 -17 -41t-41 -15q-27 0 -43.5 16t-16.5 43zM34 761q0 26 20 40t44 14q23 0 38.5 -18t15.5 -39q0 -26 -17 -41t-41 -15q-27 0 -43.5 16t-16.5 43z" />
    <glyph glyph-name="copyright" unicode="&#xa9;" 
d="M220 323q0 50 18.5 90.5t50 69t74.5 44t92 15.5q37 0 68 -11t53.5 -30t35 -42.5t12.5 -49.5q0 -24 -8 -45t-22 -37.5t-34.5 -26t-45.5 -9.5q-42 0 -71 21.5t-29 66.5q0 29 17.5 50.5t47.5 21.5q6 0 16 -2.5t19.5 -8.5t16.5 -16t7 -25q0 -16 -6 -26.5t-13 -17t-13.5 -9
t-7.5 -2.5q0 -3 5.5 -4.5t7.5 -1.5q26 0 41.5 19.5t15.5 44.5q0 20 -9 35.5t-24 27t-33.5 17.5t-36.5 6q-28 0 -50.5 -13t-38.5 -33.5t-24.5 -46t-8.5 -51.5q0 -34 7 -65.5t22.5 -55t41.5 -37.5t65 -14q16 0 34 4t33 12.5t25 22.5t10 33q0 8 -4 14.5t-4 13.5q0 5 6.5 7.5
t11.5 2.5q18 0 29 -13.5t11 -29.5q0 -36 -19.5 -60.5t-48.5 -39.5t-62.5 -21.5t-61.5 -6.5q-54 0 -95 17.5t-68.5 47t-41.5 68t-14 79.5zM736 325q0 72 -25.5 124t-68 85.5t-97 50t-113.5 16.5q-53 0 -106 -17t-96 -52t-69.5 -88t-26.5 -125q0 -75 27.5 -126.5t72 -83.5
t100 -46t110.5 -14q53 0 105 18.5t93.5 54t67.5 86.5t26 117zM816 324q0 -77 -30 -141t-80.5 -110t-117.5 -71.5t-142 -25.5q-78 0 -150 19.5t-126.5 61t-87 105.5t-32.5 153q0 86 31 152.5t83.5 111.5t121 68.5t143.5 23.5q83 0 153.5 -22.5t122.5 -66t81.5 -108.5
t29.5 -150z" />
    <glyph glyph-name="ordfeminine" unicode="&#xaa;" horiz-adv-x="480" 
d="M155 270q0 -20 13 -35t34 -15q26 0 45.5 11.5t32.5 30t19.5 41.5t6.5 46q0 2 -0.5 10t-1 16.5t-1 15.5t-1.5 7q-11 -8 -19 -14t-18 -11q-15 -8 -34.5 -17t-36 -20.5t-28 -27t-11.5 -38.5zM34 266q0 34 19 57.5t48 40.5t62.5 30t62.5 25.5t48 27t19 34.5q0 34 -19.5 50.5
t-48.5 16.5q-28 0 -51.5 -14.5t-43 -35.5t-35 -43.5t-27.5 -38.5q1 17 2 44t2 54.5t1.5 50t0.5 31.5q16 -8 25.5 -12t23.5 -4q16 0 34 3.5t36.5 7.5t37.5 7.5t37 3.5q34 0 62 -9t48.5 -28.5t31.5 -50t11 -74.5q0 -39 -1.5 -70.5t-1.5 -65.5q0 -39 8.5 -66t34.5 -56h-10
t-18 -0.5t-31 -0.5h-48q-18 2 -34 35q-26 -29 -62.5 -41.5t-74.5 -12.5q-25 0 -51 5t-48 17t-36 32t-14 50zM401 30h-297v84h297v-84z" />
    <glyph glyph-name="guillemotleft" unicode="&#xab;" horiz-adv-x="494" 
d="M92 417q0 16 -7.5 21.5t-13.5 10.5h195q-16 -10 -35.5 -27.5t-40.5 -39t-41.5 -46.5t-38.5 -50q18 -25 39 -49.5t41.5 -46t40 -38.5t35.5 -28h-195q6 5 13.5 10.5t7.5 21.5q0 6 -11 21.5t-26 35t-30.5 39.5t-24.5 34v1q9 14 24.5 33.5t30.5 39t26 35.5t11 22zM305 417
q0 16 -7.5 21.5t-13.5 10.5h195q-16 -10 -35.5 -27.5t-40.5 -39t-41.5 -46.5t-38.5 -50q18 -25 39 -49.5t41.5 -46t40 -38.5t35.5 -28h-195q6 5 13.5 10.5t7.5 21.5q0 6 -11 21.5t-26 35t-30.5 39.5t-24.5 34v1q9 14 24.5 33.5t30.5 39t26 35.5t11 22z" />
    <glyph glyph-name="logicalnot" unicode="&#xac;" horiz-adv-x="525" 
d="M483 447v-268h-114v154h-334v114h448z" />
    <glyph glyph-name="registered" unicode="&#xae;" 
d="M339 427q0 -28 19 -40.5t45 -12.5q16 0 33 3t31.5 10t23.5 19.5t9 31.5q0 42 -73 42q-13 0 -28.5 -2t-28.5 -7.5t-22 -16t-9 -27.5zM134 319q0 -60 17.5 -104t47.5 -76q14 17 24.5 39.5t17.5 46.5t10 47.5t3 41.5q0 51 -9.5 100.5t-41.5 91.5q-32 -34 -50.5 -80.5
t-18.5 -106.5zM444 49q54 0 106 19t94 55h-103q-13 8 -20.5 20t-11 25.5t-5.5 28.5t-4 28q-5 45 -24.5 68t-67.5 23q-35 0 -49.5 -14.5t-14.5 -47.5q0 -25 6.5 -44.5t16.5 -35t23 -28t26 -23.5h-200q46 -40 105.5 -57t122.5 -17zM736 325q0 72 -25.5 124t-68 85.5t-97 50
t-113.5 16.5q-55 0 -110 -18t-98 -56q47 0 78 2t55.5 4t48 4t55.5 2q21 0 50.5 -2.5t56.5 -11.5t46 -27t19 -48q0 -42 -24 -65.5t-72 -33.5q27 -14 50 -32.5t28 -49.5q6 -36 13 -70.5t32 -60.5q35 35 55.5 81t20.5 106zM816 324q0 -77 -30 -141t-80.5 -110t-117.5 -71.5
t-142 -25.5q-78 0 -150 19.5t-126.5 61t-87 105.5t-32.5 153q0 86 31 152.5t83.5 111.5t121 68.5t143.5 23.5q83 0 153.5 -22.5t122.5 -66t81.5 -108.5t29.5 -150z" />
    <glyph glyph-name="macron" unicode="&#xaf;" horiz-adv-x="400" 
d="M348 700h-297v84h297v-84z" />
    <glyph glyph-name="degree" unicode="&#xb0;" horiz-adv-x="365" 
d="M131 532q0 -30 11 -51.5t40 -21.5t42 21t13 50q0 13 -2 26t-8 23t-15.5 16.5t-24.5 6.5q-30 0 -43 -21.5t-13 -48.5zM329 534q0 -30 -11 -55.5t-30.5 -44t-44.5 -28.5t-54 -10t-56 7.5t-48 24t-33.5 41.5t-12.5 61q0 33 11.5 59t31.5 44t46 27.5t54 9.5q31 0 58 -9
t46.5 -26t31 -42.5t11.5 -58.5z" />
    <glyph glyph-name="plusminus" unicode="&#xb1;" horiz-adv-x="400" 
d="M348 208v-114h-297v114h297zM256 542v-92h92v-114h-92v-91h-114v91h-91v114h91v92h114z" />
    <glyph glyph-name="acute" unicode="&#xb4;" horiz-adv-x="290" 
d="M276 872l-135 -172h-66l75 172h126z" />
    <glyph glyph-name="mu" unicode="&#xb5;" horiz-adv-x="1019" 
d="M465 650q-18 -19 -29.5 -37.5t-11.5 -44.5q0 -29 7.5 -57t18 -55.5t23 -54t22.5 -52.5q5 -9 12.5 -17.5t16.5 -8.5q15 0 23 10t16 25q14 27 29 54t27 55.5t19.5 59t7.5 64.5q0 12 -4 28t-16 31h365q-43 -75 -68.5 -153t-25.5 -163q0 -47 4.5 -90t15.5 -84t29.5 -80.5
t47.5 -79.5h-373q51 63 82 135.5t31 153.5q0 16 -0.5 34t-2.5 33t-7.5 25t-14.5 10q-10 0 -30.5 -31t-45 -77t-50.5 -100.5t-47 -100.5t-35.5 -77t-15.5 -31t-12.5 30t-29.5 75t-40 98t-43.5 98t-40 75t-29.5 30q-10 0 -15.5 -8t-8.5 -21t-4 -30t-1 -35q0 -81 31.5 -152
t79.5 -134h-333v1q58 69 84.5 153t26.5 175q0 44 -6 89t-20 87t-38.5 79.5t-60.5 65.5h440z" />
    <glyph glyph-name="paragraph" unicode="&#xb6;" horiz-adv-x="795" 
d="M512 400q0 22 -4.5 56t-12 66t-17.5 55t-22 23q-3 0 -10 -17.5t-13.5 -46.5t-11.5 -66t-5 -76q0 -84 3 -134.5t7 -81.5t9 -49t9 -36q14 17 26.5 35t21.5 50t14.5 84.5t5.5 137.5zM37 504q0 65 33 105.5t82.5 62.5t108 29.5t109.5 7.5q47 0 94.5 -1.5t98 -3t105.5 -3.5
t118 -3q-35 -34 -59.5 -65.5t-39.5 -65.5t-22 -72.5t-7 -87.5q0 -47 6 -91.5t20.5 -88t37.5 -87t57 -90.5h-323q14 -42 33.5 -82t45.5 -78h-374q27 26 48.5 50.5t37 62.5t23.5 96t8 150q0 9 -0.5 18t-1.5 23q-46 0 -89 15.5t-76.5 44t-53.5 68t-20 86.5z" />
    <glyph glyph-name="periodcentered" unicode="&#xb7;" horiz-adv-x="268" 
d="M51 310q0 39 24.5 61t60.5 22q35 0 57.5 -22.5t22.5 -57.5q0 -34 -22.5 -58t-57.5 -24q-36 0 -60.5 22.5t-24.5 56.5z" />
    <glyph glyph-name="cedilla" unicode="&#xb8;" horiz-adv-x="317" 
d="M57 -153q0 12 8 19.5t20 7.5q5 0 14 -3t9 -11q0 -2 -3 -5t-3 -8q0 -8 6.5 -13.5t15.5 -8.5t18 -4.5t15 -1.5q24 0 42.5 12t18.5 38q0 22 -13 33.5t-34 11.5q-17 0 -32.5 -7t-28.5 -19q-14 9 -26 15t-27 12q2 7 6 23t8.5 33t8.5 32.5t6 22.5h46q-2 -3 -6 -15t-8 -25.5
t-7 -25.5t-3 -16q0 -8 6 -8q5 0 24.5 9t46.5 9q18 0 35.5 -5t31.5 -14.5t22.5 -24.5t8.5 -35q0 -23 -11 -40t-28 -28.5t-37.5 -17.5t-40.5 -6q-13 0 -32 3t-36 10.5t-29 20t-12 30.5z" />
    <glyph glyph-name="onesuperior" unicode="&#xb9;" horiz-adv-x="706" 
d="M596 606v88h39v-18h-16v-16h15v-17h-15v-20h17v-17h-40zM590 662q0 -12 -4.5 -16t-16.5 -4h-6v-36h-23v88h23q19 0 23 -5t4 -20v-7v0zM520 637v-31h-21v31l-16 57h20q5 -24 6 -33q1 7 2.5 15t3.5 18h21zM469 676v-70h-23v70h-14v18h50v-18h-13zM389 606l-1 16h-8l-2 -16
h-23l11 88h33l14 -88h-24zM351 632q0 -20 -5 -23t-19 -3h-29v88h17q13 0 20 -1t10.5 -4t4.5 -9t1 -17v-31v0zM271 606l-1 16h-9l-1 -16h-23l11 88h33l14 -88h-24zM213 606l-12 40v-40h-19v88h18l13 -40v40h20v-88h-20zM154 606l-1 16h-8l-2 -16h-23l11 88h33l14 -88h-24z
M117 638q0 -17 -5.5 -25.5t-21.5 -8.5t-21.5 7.5t-5.5 25.5v26q0 19 6.5 26t19.5 7q17 0 22.5 -8t5.5 -24v-8h-23v15q0 7 -1 8.5t-3 1.5q-4 0 -4 -11v-41q0 -7 0.5 -8.5t3.5 -1.5q2 0 3 1.5t1 9.5v12h23v-4v0zM61 0v578h578v-578h-578zM571 672q0 7 -8 7v-23h2q6 0 6 8v8z
M387 637q-1 14 -3 38q-2 -13 -3 -22.5t-1 -15.5h7v0zM328 668q0 8 -1 9.5t-6 1.5v-58q5 0 6 1.5t1 10.5v35zM269 637q-1 14 -3 38q-2 -13 -3 -22.5t-2 -15.5h8v0zM152 637q-1 7 -1.5 16t-1.5 20q-2 -12 -3 -21t-1 -15h7v0zM543 285q-3 3 -5.5 6t-6.5 5l23 68l-56 -12
q-4 2 -6.5 5.5t-4.5 6.5l-11 22l-45 -45q-4 -5 -6.5 -7t-4.5 -4q-9 4 -11 11l33 112l-33 -11q-2 -1 -7 -4t-5 -6v-1q-5 3 -6.5 4.5t-4.5 6.5l-33 67l-34 -67q-2 -5 -4.5 -6.5t-6.5 -4.5q0 3 -4.5 6.5t-6.5 4.5l-23 11l23 -112l-12 -11q-3 3 -5.5 4.5t-5.5 6.5l-45 45
l-11 -22l-6 -7.5t-5 -4.5l-56 12l22 -68q-5 -4 -11 -11h-22l101 -78q2 -2 5.5 -8.5t5.5 -14.5q-2 -5 -5.5 -12t-17.5 -21l101 22q5 -2 9 -4.5t4 -4.5q0 -1 -1 -2v-101h22v101q-1 1 -1 3q0 4 12 8l101 -22q-12 14 -16.5 22t-6.5 11q2 8 5.5 14.5t5.5 8.5l90 78h-11z" />
    <glyph glyph-name="ordmasculine" unicode="&#xba;" horiz-adv-x="553" 
d="M429 30h-297v84h297v-84zM153 377q0 -32 7 -61t22 -50.5t39.5 -34.5t59.5 -13q38 0 62.5 16.5t38.5 42t19 55t5 54.5q0 30 -6.5 58t-21.5 49t-38 34t-56 13q-36 0 -61 -14t-40.5 -36.5t-22.5 -52t-7 -60.5zM30 380q0 55 19.5 96.5t53 69.5t78 42t94.5 14t95 -14t79 -42
t54 -68.5t20 -94.5q0 -55 -18.5 -97.5t-50.5 -70.5t-76.5 -42.5t-96.5 -14.5q-54 0 -100 13.5t-79.5 41t-52.5 69t-19 98.5z" />
    <glyph glyph-name="guillemotright" unicode="&#xbb;" horiz-adv-x="494" 
d="M402 417q0 -6 11 -22t26 -35.5t30.5 -39t24.5 -33.5v-1q-9 -14 -24.5 -34t-30.5 -39.5t-26 -35t-11 -21.5q0 -16 7.5 -21.5t13.5 -10.5h-195q16 11 35.5 28t40 38.5t41.5 46t39 49.5q-18 25 -38.5 50t-41.5 46.5t-40.5 39t-35.5 27.5h195q-6 -5 -13.5 -10.5t-7.5 -21.5z
M189 417q0 -6 11 -22t26 -35.5t30.5 -39t24.5 -33.5v-1q-9 -14 -24.5 -34t-30.5 -39.5t-26 -35t-11 -21.5q0 -16 7.5 -21.5t13.5 -10.5h-195q16 11 35.5 28t40 38.5t41.5 46t39 49.5q-18 25 -38.5 50t-41.5 46.5t-40.5 39t-35.5 27.5h195q-6 -5 -13.5 -10.5t-7.5 -21.5z" />
    <glyph glyph-name="questiondown" unicode="&#xbf;" horiz-adv-x="706" 
d="M471 606q0 -18 -8 -32.5t-20.5 -24.5t-29 -15t-33.5 -5q-16 0 -30 7t-24.5 19t-16.5 26.5t-6 29.5q0 37 24 58.5t59 21.5q38 0 61.5 -23.5t23.5 -61.5zM440 397q-1 -28 -13.5 -48t-31 -35.5t-41.5 -28t-45 -25.5q-21 -12 -36 -31.5t-15 -45.5q0 -27 14 -45.5t35.5 -30
t47 -16.5t48.5 -5q25 0 54 6t54.5 19t42.5 34t17 52q0 21 -10 30t-22.5 13.5t-22.5 8.5t-10 16q0 14 7.5 25.5t18.5 19t24.5 11.5t26.5 4q54 0 81 -34t27 -85q0 -64 -32 -107.5t-81 -70.5t-108 -38.5t-112 -11.5q-30 0 -66 3.5t-72.5 12t-70.5 22.5t-60.5 35.5t-42.5 51
t-16 68.5q0 54 24.5 87.5t60.5 54t79 31.5t79 21.5t60.5 23t24.5 36.5q0 9 -1 13t-2 6l-2 4t-1 7q0 9 4.5 15t15.5 6q15 0 27.5 -7.5t21.5 -19t14 -25.5t5 -27z" />
    <glyph glyph-name="Agrave" unicode="&#xc0;" horiz-adv-x="865" 
d="M395 872l75 -172h-66l-135 172h126zM301 293q0 -17 9 -30t28 -13h109q21 0 31.5 14.5t10.5 34.5q0 16 -9.5 45.5t-23.5 58.5t-30.5 50.5t-30.5 21.5q-15 0 -31.5 -24.5t-30.5 -56t-23 -61t-9 -40.5zM5 0q43 55 82 117.5t69 129.5t47.5 138t17.5 143q0 30 -3 61t-11 61
h398l1 -1q-2 -14 -2 -27v-27q0 -85 21.5 -163.5t57.5 -152.5t82 -143.5t95 -135.5h-317q11 18 18.5 36t7.5 41q0 26 -13 41t-33 22.5t-44 9t-46 1.5h-21q-27 0 -53.5 -1.5t-47.5 -8t-34 -20t-13 -36.5q0 -22 10 -44.5t24 -40.5h-293z" />
    <glyph glyph-name="Aacute" unicode="&#xc1;" horiz-adv-x="865" 
d="M550 872l-135 -172h-66l75 172h126zM301 293q0 -17 9 -30t28 -13h109q21 0 31.5 14.5t10.5 34.5q0 16 -9.5 45.5t-23.5 58.5t-30.5 50.5t-30.5 21.5q-15 0 -31.5 -24.5t-30.5 -56t-23 -61t-9 -40.5zM5 0q43 55 82 117.5t69 129.5t47.5 138t17.5 143q0 30 -3 61t-11 61
h398l1 -1q-2 -14 -2 -27v-27q0 -85 21.5 -163.5t57.5 -152.5t82 -143.5t95 -135.5h-317q11 18 18.5 36t7.5 41q0 26 -13 41t-33 22.5t-44 9t-46 1.5h-21q-27 0 -53.5 -1.5t-47.5 -8t-34 -20t-13 -36.5q0 -22 10 -44.5t24 -40.5h-293z" />
    <glyph glyph-name="Acircumflex" unicode="&#xc2;" horiz-adv-x="865" 
d="M256 700q22 17 38 38t26.5 43t15.5 43t5 37q0 8 -3 15l-3 9h120q0 -9 -1 -15t-1 -9q0 -48 23.5 -86t59.5 -75h-142q17 11 20.5 19t3.5 16q0 3 -2.5 15.5t-7 27t-10.5 25.5t-12 11q-4 0 -8 -10.5t-7.5 -23t-6 -24t-2.5 -14.5q0 -12 3 -23t14 -19h-123zM301 293
q0 -17 9 -30t28 -13h109q21 0 31.5 14.5t10.5 34.5q0 16 -9.5 45.5t-23.5 58.5t-30.5 50.5t-30.5 21.5q-15 0 -31.5 -24.5t-30.5 -56t-23 -61t-9 -40.5zM5 0q43 55 82 117.5t69 129.5t47.5 138t17.5 143q0 30 -3 61t-11 61h398l1 -1q-2 -14 -2 -27v-27q0 -85 21.5 -163.5
t57.5 -152.5t82 -143.5t95 -135.5h-317q11 18 18.5 36t7.5 41q0 26 -13 41t-33 22.5t-44 9t-46 1.5h-21q-27 0 -53.5 -1.5t-47.5 -8t-34 -20t-13 -36.5q0 -22 10 -44.5t24 -40.5h-293z" />
    <glyph glyph-name="Atilde" unicode="&#xc3;" horiz-adv-x="865" 
d="M319 837q3 1 5.5 1.5t5.5 0.5q17 0 37 -9.5t40.5 -21t40.5 -21t36 -9.5t23.5 9.5t11.5 20.5t6.5 21t7.5 11q5 0 8.5 -9t6.5 -20t4.5 -22t1.5 -16q0 -39 -20.5 -61t-41.5 -22q-16 0 -35 9.5t-39 20.5t-40 20.5t-37 9.5t-25 -8t-12.5 -18.5t-7.5 -19.5t-10 -11q-4 0 -7.5 8
t-6 18.5t-4 21t-1.5 14.5q0 33 16.5 55t35.5 27zM301 293q0 -17 9 -30t28 -13h109q21 0 31.5 14.5t10.5 34.5q0 16 -9.5 45.5t-23.5 58.5t-30.5 50.5t-30.5 21.5q-15 0 -31.5 -24.5t-30.5 -56t-23 -61t-9 -40.5zM5 0q43 55 82 117.5t69 129.5t47.5 138t17.5 143q0 30 -3 61
t-11 61h398l1 -1q-2 -14 -2 -27v-27q0 -85 21.5 -163.5t57.5 -152.5t82 -143.5t95 -135.5h-317q11 18 18.5 36t7.5 41q0 26 -13 41t-33 22.5t-44 9t-46 1.5h-21q-27 0 -53.5 -1.5t-47.5 -8t-34 -20t-13 -36.5q0 -22 10 -44.5t24 -40.5h-293z" />
    <glyph glyph-name="Adieresis" unicode="&#xc4;" horiz-adv-x="865" 
d="M434 761q0 26 20 40t44 14q23 0 38.5 -18t15.5 -39q0 -26 -17 -41t-41 -15q-27 0 -43.5 16t-16.5 43zM280 761q0 26 20 40t44 14q23 0 38.5 -18t15.5 -39q0 -26 -17 -41t-41 -15q-27 0 -43.5 16t-16.5 43zM301 293q0 -17 9 -30t28 -13h109q21 0 31.5 14.5t10.5 34.5
q0 16 -9.5 45.5t-23.5 58.5t-30.5 50.5t-30.5 21.5q-15 0 -31.5 -24.5t-30.5 -56t-23 -61t-9 -40.5zM5 0q43 55 82 117.5t69 129.5t47.5 138t17.5 143q0 30 -3 61t-11 61h398l1 -1q-2 -14 -2 -27v-27q0 -85 21.5 -163.5t57.5 -152.5t82 -143.5t95 -135.5h-317q11 18 18.5 36
t7.5 41q0 26 -13 41t-33 22.5t-44 9t-46 1.5h-21q-27 0 -53.5 -1.5t-47.5 -8t-34 -20t-13 -36.5q0 -22 10 -44.5t24 -40.5h-293z" />
    <glyph glyph-name="Aring" unicode="&#xc5;" horiz-adv-x="865" 
d="M373 772q0 -19 7.5 -32.5t26.5 -13.5t27.5 13.5t8.5 31.5q0 17 -6.5 31t-26.5 14t-28.5 -13.5t-8.5 -30.5zM503 773q0 -19 -7.5 -35t-20 -27.5t-29 -18t-35.5 -6.5q-39 0 -68.5 20t-29.5 65q0 42 28 65t66 23q42 0 69 -22t27 -64zM301 293q0 -17 9 -30t28 -13h109
q21 0 31.5 14.5t10.5 34.5q0 16 -9.5 45.5t-23.5 58.5t-30.5 50.5t-30.5 21.5q-15 0 -31.5 -24.5t-30.5 -56t-23 -61t-9 -40.5zM5 0q43 55 82 117.5t69 129.5t47.5 138t17.5 143q0 30 -3 61t-11 61h398l1 -1q-2 -14 -2 -27v-27q0 -85 21.5 -163.5t57.5 -152.5t82 -143.5
t95 -135.5h-317q11 18 18.5 36t7.5 41q0 26 -13 41t-33 22.5t-44 9t-46 1.5h-21q-27 0 -53.5 -1.5t-47.5 -8t-34 -20t-13 -36.5q0 -22 10 -44.5t24 -40.5h-293z" />
    <glyph glyph-name="AE" unicode="&#xc6;" horiz-adv-x="1232" 
d="M366 293q-1 -4 -1.5 -7t-0.5 -7q0 -12 7 -20.5t22 -8.5h109q29 0 42 23.5t13 50.5q0 21 -4 47t-11 49t-16.5 39t-21.5 16q-15 0 -37.5 -24.5t-44 -56t-37.5 -61t-19 -40.5zM538 0q17 22 32 45.5t15 50.5q0 20 -11.5 31t-29 16t-39 6.5t-41.5 1.5h-21q-30 0 -59.5 -2
t-53 -11t-38.5 -26.5t-15 -48.5q0 -35 16 -63h-293q56 55 110 117t100 129.5t80.5 138.5t51.5 143q8 30 12 61t4 61h763l71 -224q-31 27 -64.5 51.5t-68.5 44t-71 31t-72 11.5q-43 0 -74.5 -5t-51.5 -18t-29.5 -36t-9.5 -58q0 -38 16 -61.5t58 -23.5q38 0 70.5 21t56 47
t37.5 48.5t15 25.5v-4v-14.5t-0.5 -34.5t-1 -64t-1 -103.5t-1.5 -152.5q-16 19 -33 41.5t-38 42.5t-46 33.5t-56 13.5q-34 0 -51 -20t-17 -54q0 -31 11.5 -52.5t31 -34.5t44.5 -18.5t53 -5.5q53 0 96 17t80.5 44.5t70.5 62.5t66 72q-20 -99 -31 -153.5t-17 -80.5t-8 -31.5
t-3 -7.5h-615z" />
    <glyph glyph-name="Ccedilla" unicode="&#xc7;" horiz-adv-x="743" 
d="M343 -162q0 12 8 19.5t20 7.5q5 0 14 -3t9 -11q0 -2 -3 -5t-3 -8q0 -8 6.5 -13.5t15.5 -8.5t18 -4.5t15 -1.5q24 0 42.5 12t18.5 38q0 22 -13 33.5t-34 11.5q-17 0 -32.5 -7t-28.5 -19q-14 9 -26 15t-27 12q2 9 7.5 29.5t10.5 40.5q-85 9 -144.5 39.5t-96.5 76t-53.5 102
t-16.5 117.5q0 84 30 150.5t78 113t108.5 71t121.5 24.5q45 0 72 -2.5t45.5 -6t31.5 -6t29 -2.5q28 0 49.5 10.5t49.5 35.5l33 -349q-18 30 -43 68.5t-58 73t-74 58t-91 23.5q-49 0 -84.5 -21.5t-58 -56t-33 -77.5t-10.5 -87q0 -57 11 -106t36.5 -85.5t67 -57.5t102.5 -21
q34 0 62.5 7t49.5 20.5t32.5 33.5t11.5 45q0 9 -0.5 13.5t-1.5 7.5t-2 6.5t-2 9.5q0 12 15.5 17t25.5 5q28 0 41 -22.5t13 -46.5q0 -43 -19.5 -77t-56 -58t-88 -37t-115.5 -13h-13.5t-12.5 1q-4 -13 -6.5 -23.5t-2.5 -14.5q0 -8 6 -8q5 0 24.5 9t46.5 9q18 0 35.5 -5
t31.5 -14.5t22.5 -24.5t8.5 -35q0 -23 -11 -40t-28 -28.5t-37.5 -17.5t-40.5 -6q-13 0 -32 3t-36 10.5t-29 20t-12 30.5z" />
    <glyph glyph-name="Egrave" unicode="&#xc8;" horiz-adv-x="760" 
d="M367 872l75 -172h-66l-135 172h126zM36 0q18 37 35 74t30 75.5t21 80t8 86.5q0 62 -8 108.5t-22 84.5t-33 71t-42 69h12.5h30.5t63 0.5t109 0.5h168h241l71 -224q-31 27 -64.5 51.5t-68.5 44t-71 31t-72 11.5q-43 0 -74.5 -5t-51.5 -18t-29.5 -36t-9.5 -58
q0 -38 16 -61.5t58 -23.5q27 0 50.5 10.5t43.5 26t35.5 34t26.5 34.5t17 27l6 11v-4v-13.5t-0.5 -33t-1 -63.5t-1 -104.5t-1.5 -155.5q-16 19 -33 41.5t-38 42.5t-46 33.5t-56 13.5q-34 0 -51 -20t-17 -54q0 -31 11.5 -52.5t31 -34.5t44.5 -18.5t53 -5.5q53 0 96 17
t80.5 44.5t70.5 62.5t66 72q-20 -99 -31 -153.5t-17 -80.5t-8 -31.5t-3 -7.5h-645z" />
    <glyph glyph-name="Eacute" unicode="&#xc9;" horiz-adv-x="760" 
d="M532 872l-135 -172h-66l75 172h126zM36 0q18 37 35 74t30 75.5t21 80t8 86.5q0 62 -8 108.5t-22 84.5t-33 71t-42 69h12.5h30.5t63 0.5t109 0.5h168h241l71 -224q-31 27 -64.5 51.5t-68.5 44t-71 31t-72 11.5q-43 0 -74.5 -5t-51.5 -18t-29.5 -36t-9.5 -58
q0 -38 16 -61.5t58 -23.5q27 0 50.5 10.5t43.5 26t35.5 34t26.5 34.5t17 27l6 11v-4v-13.5t-0.5 -33t-1 -63.5t-1 -104.5t-1.5 -155.5q-16 19 -33 41.5t-38 42.5t-46 33.5t-56 13.5q-34 0 -51 -20t-17 -54q0 -31 11.5 -52.5t31 -34.5t44.5 -18.5t53 -5.5q53 0 96 17
t80.5 44.5t70.5 62.5t66 72q-20 -99 -31 -153.5t-17 -80.5t-8 -31.5t-3 -7.5h-645z" />
    <glyph glyph-name="Ecircumflex" unicode="&#xca;" horiz-adv-x="760" 
d="M240 700q22 17 38 38t26.5 43t15.5 43t5 37q0 8 -3 15l-3 9h120q0 -9 -1 -15t-1 -9q0 -48 23.5 -86t59.5 -75h-142q17 11 20.5 19t3.5 16q0 3 -2.5 15.5t-7 27t-10.5 25.5t-12 11q-4 0 -8 -10.5t-7.5 -23t-6 -24t-2.5 -14.5q0 -12 3 -23t14 -19h-123zM36 0q18 37 35 74
t30 75.5t21 80t8 86.5q0 62 -8 108.5t-22 84.5t-33 71t-42 69h12.5h30.5t63 0.5t109 0.5h168h241l71 -224q-31 27 -64.5 51.5t-68.5 44t-71 31t-72 11.5q-43 0 -74.5 -5t-51.5 -18t-29.5 -36t-9.5 -58q0 -38 16 -61.5t58 -23.5q27 0 50.5 10.5t43.5 26t35.5 34t26.5 34.5
t17 27l6 11v-4v-13.5t-0.5 -33t-1 -63.5t-1 -104.5t-1.5 -155.5q-16 19 -33 41.5t-38 42.5t-46 33.5t-56 13.5q-34 0 -51 -20t-17 -54q0 -31 11.5 -52.5t31 -34.5t44.5 -18.5t53 -5.5q53 0 96 17t80.5 44.5t70.5 62.5t66 72q-20 -99 -31 -153.5t-17 -80.5t-8 -31.5t-3 -7.5
h-645z" />
    <glyph glyph-name="Edieresis" unicode="&#xcb;" horiz-adv-x="760" 
d="M398 761q0 26 20 40t44 14q23 0 38.5 -18t15.5 -39q0 -26 -17 -41t-41 -15q-27 0 -43.5 16t-16.5 43zM244 761q0 26 20 40t44 14q23 0 38.5 -18t15.5 -39q0 -26 -17 -41t-41 -15q-27 0 -43.5 16t-16.5 43zM36 0q18 37 35 74t30 75.5t21 80t8 86.5q0 62 -8 108.5t-22 84.5
t-33 71t-42 69h12.5h30.5t63 0.5t109 0.5h168h241l71 -224q-31 27 -64.5 51.5t-68.5 44t-71 31t-72 11.5q-43 0 -74.5 -5t-51.5 -18t-29.5 -36t-9.5 -58q0 -38 16 -61.5t58 -23.5q27 0 50.5 10.5t43.5 26t35.5 34t26.5 34.5t17 27l6 11v-4v-13.5t-0.5 -33t-1 -63.5
t-1 -104.5t-1.5 -155.5q-16 19 -33 41.5t-38 42.5t-46 33.5t-56 13.5q-34 0 -51 -20t-17 -54q0 -31 11.5 -52.5t31 -34.5t44.5 -18.5t53 -5.5q53 0 96 17t80.5 44.5t70.5 62.5t66 72q-20 -99 -31 -153.5t-17 -80.5t-8 -31.5t-3 -7.5h-645z" />
    <glyph glyph-name="Igrave" unicode="&#xcc;" horiz-adv-x="425" 
d="M197 872l75 -172h-66l-135 172h126zM400 650q-22 -33 -42 -68t-35 -72t-23.5 -75.5t-8.5 -78.5q0 -195 109 -356h-374q24 45 45 89.5t37 89.5t25.5 90t9.5 90q0 85 -27 156.5t-91 134.5h375z" />
    <glyph glyph-name="Iacute" unicode="&#xcd;" horiz-adv-x="425" 
d="M377 872l-135 -172h-66l75 172h126zM400 650q-22 -33 -42 -68t-35 -72t-23.5 -75.5t-8.5 -78.5q0 -195 109 -356h-374q24 45 45 89.5t37 89.5t25.5 90t9.5 90q0 85 -27 156.5t-91 134.5h375z" />
    <glyph glyph-name="Icircumflex" unicode="&#xce;" horiz-adv-x="425" 
d="M72 700q22 17 38 38t26.5 43t15.5 43t5 37q0 8 -3 15l-3 9h120q0 -9 -1 -15t-1 -9q0 -48 23.5 -86t59.5 -75h-142q17 11 20.5 19t3.5 16q0 3 -2.5 15.5t-7 27t-10.5 25.5t-12 11q-4 0 -8 -10.5t-7.5 -23t-6 -24t-2.5 -14.5q0 -12 3 -23t14 -19h-123zM400 650
q-22 -33 -42 -68t-35 -72t-23.5 -75.5t-8.5 -78.5q0 -195 109 -356h-374q24 45 45 89.5t37 89.5t25.5 90t9.5 90q0 85 -27 156.5t-91 134.5h375z" />
    <glyph glyph-name="Idieresis" unicode="&#xcf;" horiz-adv-x="425" 
d="M240 761q0 26 20 40t44 14q23 0 38.5 -18t15.5 -39q0 -26 -17 -41t-41 -15q-27 0 -43.5 16t-16.5 43zM86 761q0 26 20 40t44 14q23 0 38.5 -18t15.5 -39q0 -26 -17 -41t-41 -15q-27 0 -43.5 16t-16.5 43zM400 650q-22 -33 -42 -68t-35 -72t-23.5 -75.5t-8.5 -78.5
q0 -195 109 -356h-374q24 45 45 89.5t37 89.5t25.5 90t9.5 90q0 85 -27 156.5t-91 134.5h375z" />
    <glyph glyph-name="Eth" unicode="&#xd0;" horiz-adv-x="851" 
d="M375 285h-78q0 -45 3 -81.5t14 -62t33 -39.5t61 -14q42 0 79 18t64 48.5t43 70.5t16 84q0 117 -49.5 183t-149.5 66q-38 0 -59 -13t-32 -35t-14.5 -50.5t-6.5 -60.5h76v-114zM29 650h133t118.5 0.5t90.5 0.5h48q86 0 156.5 -21t120.5 -59t77.5 -90t27.5 -114
q0 -64 -19.5 -129.5t-66.5 -119t-126 -87.5t-199 -34q-15 0 -40 0.5t-67 1t-105 1t-153 0.5q38 72 69.5 142.5t45.5 142.5h-92v114h97q-5 72 -32 134t-84 117z" />
    <glyph glyph-name="Ntilde" unicode="&#xd1;" horiz-adv-x="853" 
d="M335 837q3 1 5.5 1.5t5.5 0.5q17 0 37 -9.5t40.5 -21t40.5 -21t36 -9.5t23.5 9.5t11.5 20.5t6.5 21t7.5 11q5 0 8.5 -9t6.5 -20t4.5 -22t1.5 -16q0 -39 -20.5 -61t-41.5 -22q-16 0 -35 9.5t-39 20.5t-40 20.5t-37 9.5t-25 -8t-12.5 -18.5t-7.5 -19.5t-10 -11q-4 0 -7.5 8
t-6 18.5t-4 21t-1.5 14.5q0 33 16.5 55t35.5 27zM728 -66q-26 23 -41.5 38t-29.5 30.5t-32 35.5t-51 54.5t-85 87t-134 132.5q-6 6 -15.5 15t-20.5 17t-22 13.5t-22 5.5q-14 0 -21.5 -11t-11 -26t-4 -30t-0.5 -24q0 -38 10 -74.5t26.5 -70.5t38 -65.5t45.5 -61.5h-333
q26 37 44.5 71.5t30.5 73t18 84.5t6 106q0 82 -21 164.5t-77 150.5h320q0 -39 17 -80t43.5 -80t58.5 -73.5t61 -60t51.5 -40.5t30.5 -15q11 0 14 22t3 52q0 81 -28.5 147.5t-88.5 127.5h340q-31 -42 -53.5 -87t-37.5 -91.5t-22 -92.5t-7 -88v-357z" />
    <glyph glyph-name="Ograve" unicode="&#xd2;" 
d="M420 872l75 -172h-66l-135 172h126zM241 324q0 -48 10 -93t33 -79.5t60 -55t91 -20.5q52 0 89 20.5t61 54.5t35 78.5t11 91.5q0 45 -8.5 90t-29.5 81t-56 59t-88 23q-54 0 -93.5 -20.5t-65 -55t-37.5 -79.5t-12 -95zM816 324q0 -77 -30 -141t-80.5 -110t-117.5 -71.5
t-142 -25.5q-78 0 -150 19.5t-126.5 61t-87 105.5t-32.5 153q0 86 31 152.5t83.5 111.5t121 68.5t143.5 23.5q83 0 153.5 -22.5t122.5 -66t81.5 -108.5t29.5 -150z" />
    <glyph glyph-name="Oacute" unicode="&#xd3;" 
d="M596 872l-135 -172h-66l75 172h126zM241 324q0 -48 10 -93t33 -79.5t60 -55t91 -20.5q52 0 89 20.5t61 54.5t35 78.5t11 91.5q0 45 -8.5 90t-29.5 81t-56 59t-88 23q-54 0 -93.5 -20.5t-65 -55t-37.5 -79.5t-12 -95zM816 324q0 -77 -30 -141t-80.5 -110t-117.5 -71.5
t-142 -25.5q-78 0 -150 19.5t-126.5 61t-87 105.5t-32.5 153q0 86 31 152.5t83.5 111.5t121 68.5t143.5 23.5q83 0 153.5 -22.5t122.5 -66t81.5 -108.5t29.5 -150z" />
    <glyph glyph-name="Ocircumflex" unicode="&#xd4;" 
d="M293 700q22 17 38 38t26.5 43t15.5 43t5 37q0 8 -3 15l-3 9h120q0 -9 -1 -15t-1 -9q0 -48 23.5 -86t59.5 -75h-142q17 11 20.5 19t3.5 16q0 3 -2.5 15.5t-7 27t-10.5 25.5t-12 11q-4 0 -8 -10.5t-7.5 -23t-6 -24t-2.5 -14.5q0 -12 3 -23t14 -19h-123zM241 324
q0 -48 10 -93t33 -79.5t60 -55t91 -20.5q52 0 89 20.5t61 54.5t35 78.5t11 91.5q0 45 -8.5 90t-29.5 81t-56 59t-88 23q-54 0 -93.5 -20.5t-65 -55t-37.5 -79.5t-12 -95zM816 324q0 -77 -30 -141t-80.5 -110t-117.5 -71.5t-142 -25.5q-78 0 -150 19.5t-126.5 61t-87 105.5
t-32.5 153q0 86 31 152.5t83.5 111.5t121 68.5t143.5 23.5q83 0 153.5 -22.5t122.5 -66t81.5 -108.5t29.5 -150z" />
    <glyph glyph-name="Otilde" unicode="&#xd5;" 
d="M349 847q3 1 5.5 1.5t5.5 0.5q17 0 37 -9.5t40.5 -21t40.5 -21t36 -9.5t23.5 9.5t11.5 20.5t6.5 21t7.5 11q5 0 8.5 -9t6.5 -20t4.5 -22t1.5 -16q0 -39 -20.5 -61t-41.5 -22q-16 0 -35 9.5t-39 20.5t-40 20.5t-37 9.5t-25 -8t-12.5 -18.5t-7.5 -19.5t-10 -11q-4 0 -7.5 8
t-6 18.5t-4 21t-1.5 14.5q0 33 16.5 55t35.5 27zM241 324q0 -48 10 -93t33 -79.5t60 -55t91 -20.5q52 0 89 20.5t61 54.5t35 78.5t11 91.5q0 45 -8.5 90t-29.5 81t-56 59t-88 23q-54 0 -93.5 -20.5t-65 -55t-37.5 -79.5t-12 -95zM816 324q0 -77 -30 -141t-80.5 -110
t-117.5 -71.5t-142 -25.5q-78 0 -150 19.5t-126.5 61t-87 105.5t-32.5 153q0 86 31 152.5t83.5 111.5t121 68.5t143.5 23.5q83 0 153.5 -22.5t122.5 -66t81.5 -108.5t29.5 -150z" />
    <glyph glyph-name="Odieresis" unicode="&#xd6;" 
d="M451 761q0 26 20 40t44 14q23 0 38.5 -18t15.5 -39q0 -26 -17 -41t-41 -15q-27 0 -43.5 16t-16.5 43zM297 761q0 26 20 40t44 14q23 0 38.5 -18t15.5 -39q0 -26 -17 -41t-41 -15q-27 0 -43.5 16t-16.5 43zM241 324q0 -48 10 -93t33 -79.5t60 -55t91 -20.5q52 0 89 20.5
t61 54.5t35 78.5t11 91.5q0 45 -8.5 90t-29.5 81t-56 59t-88 23q-54 0 -93.5 -20.5t-65 -55t-37.5 -79.5t-12 -95zM816 324q0 -77 -30 -141t-80.5 -110t-117.5 -71.5t-142 -25.5q-78 0 -150 19.5t-126.5 61t-87 105.5t-32.5 153q0 86 31 152.5t83.5 111.5t121 68.5
t143.5 23.5q83 0 153.5 -22.5t122.5 -66t81.5 -108.5t29.5 -150z" />
    <glyph glyph-name="multiply" unicode="&#xd7;" horiz-adv-x="394" 
d="M342 376l-65 -65l65 -65l-81 -81l-65 65l-64 -64l-81 81l64 64l-64 64l81 81l64 -64l65 65z" />
    <glyph glyph-name="Oslash" unicode="&#xd8;" 
d="M631 321q0 46 -9 92.5t-32 83.5q-34 -51 -63.5 -99t-57.5 -96t-56 -99.5t-60 -110.5q33 -16 82 -16q52 0 89 20.5t61 54.5t35 78.5t11 91.5zM241 324q0 -49 10.5 -93.5t33.5 -79.5q66 100 124.5 199t119.5 205q-17 9 -36.5 14t-43.5 5q-54 0 -93.5 -20.5t-65 -55
t-37.5 -79.5t-12 -95zM119 -67q6 6 16 17t19.5 22t17.5 20.5t10 12.5q5 8 10.5 14.5t10.5 14.5q-69 40 -111 109t-42 172q0 86 31 152.5t83.5 111.5t121 68.5t143.5 23.5q79 0 148 -21q5 14 7.5 29.5t2.5 30.5h174q-22 -26 -46.5 -51.5t-44.5 -50.5q69 -43 107.5 -113.5
t38.5 -170.5q0 -77 -30 -141t-80.5 -110t-117.5 -71.5t-142 -25.5q-70 0 -140 17q-5 -15 -9 -30.5t-7 -29.5h-171z" />
    <glyph glyph-name="Ugrave" unicode="&#xd9;" horiz-adv-x="774" 
d="M368 872l75 -172h-66l-135 172h126zM96 208q0 20 0.5 34.5t1 32.5t1 43.5t0.5 68.5q0 39 -4.5 75t-15 69t-28.5 62.5t-46 56.5h355q-23 -37 -40 -72.5t-28 -71t-16.5 -73.5t-5.5 -82q0 -26 0.5 -56t4.5 -60.5t13 -59t25 -50.5t41 -35t61 -13q50 0 78.5 30t42 73
t16.5 90.5t3 82.5q0 89 -18 146t-40 90t-42 46.5t-23 14.5h337q-45 -52 -69.5 -105.5t-24.5 -119.5v-260q0 -49 -26.5 -83.5t-66.5 -56.5t-86.5 -32t-85.5 -10q-60 0 -116.5 10.5t-100.5 36t-70.5 69t-26.5 109.5z" />
    <glyph glyph-name="Uacute" unicode="&#xda;" horiz-adv-x="774" 
d="M564 872l-135 -172h-66l75 172h126zM96 208q0 20 0.5 34.5t1 32.5t1 43.5t0.5 68.5q0 39 -4.5 75t-15 69t-28.5 62.5t-46 56.5h355q-23 -37 -40 -72.5t-28 -71t-16.5 -73.5t-5.5 -82q0 -26 0.5 -56t4.5 -60.5t13 -59t25 -50.5t41 -35t61 -13q50 0 78.5 30t42 73
t16.5 90.5t3 82.5q0 89 -18 146t-40 90t-42 46.5t-23 14.5h337q-45 -52 -69.5 -105.5t-24.5 -119.5v-260q0 -49 -26.5 -83.5t-66.5 -56.5t-86.5 -32t-85.5 -10q-60 0 -116.5 10.5t-100.5 36t-70.5 69t-26.5 109.5z" />
    <glyph glyph-name="Ucircumflex" unicode="&#xdb;" horiz-adv-x="774" 
d="M270 700q22 17 38 38t26.5 43t15.5 43t5 37q0 8 -3 15l-3 9h120q0 -9 -1 -15t-1 -9q0 -48 23.5 -86t59.5 -75h-142q17 11 20.5 19t3.5 16q0 3 -2.5 15.5t-7 27t-10.5 25.5t-12 11q-4 0 -8 -10.5t-7.5 -23t-6 -24t-2.5 -14.5q0 -12 3 -23t14 -19h-123zM96 208
q0 20 0.5 34.5t1 32.5t1 43.5t0.5 68.5q0 39 -4.5 75t-15 69t-28.5 62.5t-46 56.5h355q-23 -37 -40 -72.5t-28 -71t-16.5 -73.5t-5.5 -82q0 -26 0.5 -56t4.5 -60.5t13 -59t25 -50.5t41 -35t61 -13q50 0 78.5 30t42 73t16.5 90.5t3 82.5q0 89 -18 146t-40 90t-42 46.5
t-23 14.5h337q-45 -52 -69.5 -105.5t-24.5 -119.5v-260q0 -49 -26.5 -83.5t-66.5 -56.5t-86.5 -32t-85.5 -10q-60 0 -116.5 10.5t-100.5 36t-70.5 69t-26.5 109.5z" />
    <glyph glyph-name="Udieresis" unicode="&#xdc;" horiz-adv-x="774" 
d="M422 761q0 26 20 40t44 14q23 0 38.5 -18t15.5 -39q0 -26 -17 -41t-41 -15q-27 0 -43.5 16t-16.5 43zM268 761q0 26 20 40t44 14q23 0 38.5 -18t15.5 -39q0 -26 -17 -41t-41 -15q-27 0 -43.5 16t-16.5 43zM96 208q0 20 0.5 34.5t1 32.5t1 43.5t0.5 68.5q0 39 -4.5 75
t-15 69t-28.5 62.5t-46 56.5h355q-23 -37 -40 -72.5t-28 -71t-16.5 -73.5t-5.5 -82q0 -26 0.5 -56t4.5 -60.5t13 -59t25 -50.5t41 -35t61 -13q50 0 78.5 30t42 73t16.5 90.5t3 82.5q0 89 -18 146t-40 90t-42 46.5t-23 14.5h337q-45 -52 -69.5 -105.5t-24.5 -119.5v-260
q0 -49 -26.5 -83.5t-66.5 -56.5t-86.5 -32t-85.5 -10q-60 0 -116.5 10.5t-100.5 36t-70.5 69t-26.5 109.5z" />
    <glyph glyph-name="Yacute" unicode="&#xdd;" horiz-adv-x="859" 
d="M632 873l-135 -172h-66l75 172h126zM215 0q23 18 45.5 34.5t39.5 36t27.5 46t10.5 65.5q0 45 -21.5 93t-49.5 90q-30 42 -58 82.5t-59 77.5t-66 68.5t-79 56.5h395q-6 -9 -14.5 -17t-16.5 -18.5t-13.5 -24.5t-5.5 -34q0 -10 12 -38t29 -57t36 -51.5t32 -22.5
q12 0 29.5 21t34 50.5t28.5 61t12 53.5q0 26 -13.5 44t-28.5 33h333q-13 -10 -27.5 -18.5t-35.5 -24t-49.5 -42t-69.5 -72.5q-27 -30 -56 -65.5t-52.5 -75.5t-39 -83t-15.5 -87q0 -60 31.5 -106.5t82.5 -75.5h-408z" />
    <glyph glyph-name="Thorn" unicode="&#xde;" horiz-adv-x="854" 
d="M634 313q0 31 -13.5 52.5t-35 35t-49 19.5t-55.5 6t-52.5 -5.5t-42.5 -19t-28.5 -36t-10.5 -57.5q0 -31 10.5 -51.5t28.5 -33t42.5 -18t52.5 -5.5t55.5 6t49 19.5t35 35t13.5 52.5zM400 650q-7 -10 -15.5 -19.5t-16 -19.5t-13 -21t-5.5 -23q0 -25 16.5 -36t39.5 -11h117
q95 0 154 -20t91.5 -51t44 -68t11.5 -71q0 -44 -20.5 -81.5t-59 -64.5t-94.5 -42.5t-127 -15.5h-117q-18 0 -35 -4t-17 -23q0 -23 16 -42t30 -37h-374q24 45 45 89.5t37 89.5t25.5 90t9.5 90q0 85 -27 156.5t-91 134.5h375z" />
    <glyph glyph-name="germandbls" unicode="&#xdf;" horiz-adv-x="1418" 
d="M1366 323q-33 50 -65 92.5t-67.5 74t-76 49t-91.5 17.5q-13 0 -30 -3t-31.5 -10t-24.5 -19.5t-10 -30.5q0 -21 13 -37.5t44.5 -33.5t85 -38.5t133.5 -52.5q58 -22 97.5 -65t39.5 -109q0 -59 -27.5 -98.5t-70 -63t-94 -33.5t-99.5 -10q-55 0 -92 10t-65 21.5t-51.5 21.5
t-50.5 10q-26 0 -47 -9t-44 -23q0 33 -0.5 65t-1 72.5t-1 94t-0.5 129.5q30 -48 59 -101t65 -97.5t83.5 -73.5t114.5 -29q21 0 42 6.5t37.5 18.5t27 30t10.5 42q0 36 -30.5 59.5t-76 42t-99 36.5t-99 41.5t-76 56.5t-30.5 83q0 56 26 92.5t65.5 58.5t87.5 31t92 9
q41 0 72.5 -6.5t61.5 -15t62 -15t72 -6.5q11 0 21.5 3.5t18.5 8t13.5 8t6.5 3.5v-307zM667 340q-33 50 -65 92.5t-67.5 74t-76 49t-91.5 17.5q-13 0 -30 -3t-31.5 -10t-24.5 -19.5t-10 -30.5q0 -21 13 -37.5t44.5 -33.5t85 -38.5t133.5 -52.5q58 -22 97.5 -65t39.5 -109
q0 -59 -27.5 -98.5t-70 -63t-94 -33.5t-99.5 -10q-55 0 -92 10t-65 21.5t-51.5 21.5t-50.5 10q-26 0 -47 -9t-44 -23q0 33 -0.5 65t-1 72.5t-1 94t-0.5 129.5q30 -48 59 -101t65 -97.5t83.5 -73.5t114.5 -29q21 0 42 6.5t37.5 18.5t27 30t10.5 42q0 36 -30.5 59.5t-76 42
t-99 36.5t-99 41.5t-76 56.5t-30.5 83q0 56 26 92.5t65.5 58.5t87.5 31t92 9q41 0 72.5 -6.5t61.5 -15t62 -15t72 -6.5q11 0 21.5 3.5t18.5 8t13.5 8t6.5 3.5v-307z" />
    <glyph glyph-name="agrave" unicode="&#xe0;" horiz-adv-x="865" 
d="M395 872l75 -172h-66l-135 172h126zM301 293q0 -17 9 -30t28 -13h109q21 0 31.5 14.5t10.5 34.5q0 16 -9.5 45.5t-23.5 58.5t-30.5 50.5t-30.5 21.5q-15 0 -31.5 -24.5t-30.5 -56t-23 -61t-9 -40.5zM5 0q43 55 82 117.5t69 129.5t47.5 138t17.5 143q0 30 -3 61t-11 61
h398l1 -1q-2 -14 -2 -27v-27q0 -85 21.5 -163.5t57.5 -152.5t82 -143.5t95 -135.5h-317q11 18 18.5 36t7.5 41q0 26 -13 41t-33 22.5t-44 9t-46 1.5h-21q-27 0 -53.5 -1.5t-47.5 -8t-34 -20t-13 -36.5q0 -22 10 -44.5t24 -40.5h-293z" />
    <glyph glyph-name="aacute" unicode="&#xe1;" horiz-adv-x="865" 
d="M550 872l-135 -172h-66l75 172h126zM301 293q0 -17 9 -30t28 -13h109q21 0 31.5 14.5t10.5 34.5q0 16 -9.5 45.5t-23.5 58.5t-30.5 50.5t-30.5 21.5q-15 0 -31.5 -24.5t-30.5 -56t-23 -61t-9 -40.5zM5 0q43 55 82 117.5t69 129.5t47.5 138t17.5 143q0 30 -3 61t-11 61
h398l1 -1q-2 -14 -2 -27v-27q0 -85 21.5 -163.5t57.5 -152.5t82 -143.5t95 -135.5h-317q11 18 18.5 36t7.5 41q0 26 -13 41t-33 22.5t-44 9t-46 1.5h-21q-27 0 -53.5 -1.5t-47.5 -8t-34 -20t-13 -36.5q0 -22 10 -44.5t24 -40.5h-293z" />
    <glyph glyph-name="acircumflex" unicode="&#xe2;" horiz-adv-x="865" 
d="M256 700q22 17 38 38t26.5 43t15.5 43t5 37q0 8 -3 15l-3 9h120q0 -9 -1 -15t-1 -9q0 -48 23.5 -86t59.5 -75h-142q17 11 20.5 19t3.5 16q0 3 -2.5 15.5t-7 27t-10.5 25.5t-12 11q-4 0 -8 -10.5t-7.5 -23t-6 -24t-2.5 -14.5q0 -12 3 -23t14 -19h-123zM301 293
q0 -17 9 -30t28 -13h109q21 0 31.5 14.5t10.5 34.5q0 16 -9.5 45.5t-23.5 58.5t-30.5 50.5t-30.5 21.5q-15 0 -31.5 -24.5t-30.5 -56t-23 -61t-9 -40.5zM5 0q43 55 82 117.5t69 129.5t47.5 138t17.5 143q0 30 -3 61t-11 61h398l1 -1q-2 -14 -2 -27v-27q0 -85 21.5 -163.5
t57.5 -152.5t82 -143.5t95 -135.5h-317q11 18 18.5 36t7.5 41q0 26 -13 41t-33 22.5t-44 9t-46 1.5h-21q-27 0 -53.5 -1.5t-47.5 -8t-34 -20t-13 -36.5q0 -22 10 -44.5t24 -40.5h-293z" />
    <glyph glyph-name="atilde" unicode="&#xe3;" horiz-adv-x="865" 
d="M319 837q3 1 5.5 1.5t5.5 0.5q17 0 37 -9.5t40.5 -21t40.5 -21t36 -9.5t23.5 9.5t11.5 20.5t6.5 21t7.5 11q5 0 8.5 -9t6.5 -20t4.5 -22t1.5 -16q0 -39 -20.5 -61t-41.5 -22q-16 0 -35 9.5t-39 20.5t-40 20.5t-37 9.5t-25 -8t-12.5 -18.5t-7.5 -19.5t-10 -11q-4 0 -7.5 8
t-6 18.5t-4 21t-1.5 14.5q0 33 16.5 55t35.5 27zM301 293q0 -17 9 -30t28 -13h109q21 0 31.5 14.5t10.5 34.5q0 16 -9.5 45.5t-23.5 58.5t-30.5 50.5t-30.5 21.5q-15 0 -31.5 -24.5t-30.5 -56t-23 -61t-9 -40.5zM5 0q43 55 82 117.5t69 129.5t47.5 138t17.5 143q0 30 -3 61
t-11 61h398l1 -1q-2 -14 -2 -27v-27q0 -85 21.5 -163.5t57.5 -152.5t82 -143.5t95 -135.5h-317q11 18 18.5 36t7.5 41q0 26 -13 41t-33 22.5t-44 9t-46 1.5h-21q-27 0 -53.5 -1.5t-47.5 -8t-34 -20t-13 -36.5q0 -22 10 -44.5t24 -40.5h-293z" />
    <glyph glyph-name="adieresis" unicode="&#xe4;" horiz-adv-x="865" 
d="M434 761q0 26 20 40t44 14q23 0 38.5 -18t15.5 -39q0 -26 -17 -41t-41 -15q-27 0 -43.5 16t-16.5 43zM280 761q0 26 20 40t44 14q23 0 38.5 -18t15.5 -39q0 -26 -17 -41t-41 -15q-27 0 -43.5 16t-16.5 43zM301 293q0 -17 9 -30t28 -13h109q21 0 31.5 14.5t10.5 34.5
q0 16 -9.5 45.5t-23.5 58.5t-30.5 50.5t-30.5 21.5q-15 0 -31.5 -24.5t-30.5 -56t-23 -61t-9 -40.5zM5 0q43 55 82 117.5t69 129.5t47.5 138t17.5 143q0 30 -3 61t-11 61h398l1 -1q-2 -14 -2 -27v-27q0 -85 21.5 -163.5t57.5 -152.5t82 -143.5t95 -135.5h-317q11 18 18.5 36
t7.5 41q0 26 -13 41t-33 22.5t-44 9t-46 1.5h-21q-27 0 -53.5 -1.5t-47.5 -8t-34 -20t-13 -36.5q0 -22 10 -44.5t24 -40.5h-293z" />
    <glyph glyph-name="aring" unicode="&#xe5;" horiz-adv-x="865" 
d="M373 772q0 -19 7.5 -32.5t26.5 -13.5t27.5 13.5t8.5 31.5q0 17 -6.5 31t-26.5 14t-28.5 -13.5t-8.5 -30.5zM503 773q0 -19 -7.5 -35t-20 -27.5t-29 -18t-35.5 -6.5q-39 0 -68.5 20t-29.5 65q0 42 28 65t66 23q42 0 69 -22t27 -64zM301 293q0 -17 9 -30t28 -13h109
q21 0 31.5 14.5t10.5 34.5q0 16 -9.5 45.5t-23.5 58.5t-30.5 50.5t-30.5 21.5q-15 0 -31.5 -24.5t-30.5 -56t-23 -61t-9 -40.5zM5 0q43 55 82 117.5t69 129.5t47.5 138t17.5 143q0 30 -3 61t-11 61h398l1 -1q-2 -14 -2 -27v-27q0 -85 21.5 -163.5t57.5 -152.5t82 -143.5
t95 -135.5h-317q11 18 18.5 36t7.5 41q0 26 -13 41t-33 22.5t-44 9t-46 1.5h-21q-27 0 -53.5 -1.5t-47.5 -8t-34 -20t-13 -36.5q0 -22 10 -44.5t24 -40.5h-293z" />
    <glyph glyph-name="ae" unicode="&#xe6;" horiz-adv-x="1232" 
d="M366 293q-1 -4 -1.5 -7t-0.5 -7q0 -12 7 -20.5t22 -8.5h109q29 0 42 23.5t13 50.5q0 21 -4 47t-11 49t-16.5 39t-21.5 16q-15 0 -37.5 -24.5t-44 -56t-37.5 -61t-19 -40.5zM538 0q17 22 32 45.5t15 50.5q0 20 -11.5 31t-29 16t-39 6.5t-41.5 1.5h-21q-30 0 -59.5 -2
t-53 -11t-38.5 -26.5t-15 -48.5q0 -35 16 -63h-293q56 55 110 117t100 129.5t80.5 138.5t51.5 143q8 30 12 61t4 61h763l71 -224q-31 27 -64.5 51.5t-68.5 44t-71 31t-72 11.5q-43 0 -74.5 -5t-51.5 -18t-29.5 -36t-9.5 -58q0 -38 16 -61.5t58 -23.5q38 0 70.5 21t56 47
t37.5 48.5t15 25.5v-4v-14.5t-0.5 -34.5t-1 -64t-1 -103.5t-1.5 -152.5q-16 19 -33 41.5t-38 42.5t-46 33.5t-56 13.5q-34 0 -51 -20t-17 -54q0 -31 11.5 -52.5t31 -34.5t44.5 -18.5t53 -5.5q53 0 96 17t80.5 44.5t70.5 62.5t66 72q-20 -99 -31 -153.5t-17 -80.5t-8 -31.5
t-3 -7.5h-615z" />
    <glyph glyph-name="ccedilla" unicode="&#xe7;" horiz-adv-x="743" 
d="M343 -162q0 12 8 19.5t20 7.5q5 0 14 -3t9 -11q0 -2 -3 -5t-3 -8q0 -8 6.5 -13.5t15.5 -8.5t18 -4.5t15 -1.5q24 0 42.5 12t18.5 38q0 22 -13 33.5t-34 11.5q-17 0 -32.5 -7t-28.5 -19q-14 9 -26 15t-27 12q2 9 7.5 29.5t10.5 40.5q-85 9 -144.5 39.5t-96.5 76t-53.5 102
t-16.5 117.5q0 84 30 150.5t78 113t108.5 71t121.5 24.5q45 0 72 -2.5t45.5 -6t31.5 -6t29 -2.5q28 0 49.5 10.5t49.5 35.5l33 -349q-18 30 -43 68.5t-58 73t-74 58t-91 23.5q-49 0 -84.5 -21.5t-58 -56t-33 -77.5t-10.5 -87q0 -57 11 -106t36.5 -85.5t67 -57.5t102.5 -21
q34 0 62.5 7t49.5 20.5t32.5 33.5t11.5 45q0 9 -0.5 13.5t-1.5 7.5t-2 6.5t-2 9.5q0 12 15.5 17t25.5 5q28 0 41 -22.5t13 -46.5q0 -43 -19.5 -77t-56 -58t-88 -37t-115.5 -13h-13.5t-12.5 1q-4 -13 -6.5 -23.5t-2.5 -14.5q0 -8 6 -8q5 0 24.5 9t46.5 9q18 0 35.5 -5
t31.5 -14.5t22.5 -24.5t8.5 -35q0 -23 -11 -40t-28 -28.5t-37.5 -17.5t-40.5 -6q-13 0 -32 3t-36 10.5t-29 20t-12 30.5z" />
    <glyph glyph-name="egrave" unicode="&#xe8;" horiz-adv-x="760" 
d="M367 872l75 -172h-66l-135 172h126zM36 0q18 37 35 74t30 75.5t21 80t8 86.5q0 62 -8 108.5t-22 84.5t-33 71t-42 69h12.5h30.5t63 0.5t109 0.5h168h241l71 -224q-31 27 -64.5 51.5t-68.5 44t-71 31t-72 11.5q-43 0 -74.5 -5t-51.5 -18t-29.5 -36t-9.5 -58
q0 -38 16 -61.5t58 -23.5q27 0 50.5 10.5t43.5 26t35.5 34t26.5 34.5t17 27l6 11v-4v-13.5t-0.5 -33t-1 -63.5t-1 -104.5t-1.5 -155.5q-16 19 -33 41.5t-38 42.5t-46 33.5t-56 13.5q-34 0 -51 -20t-17 -54q0 -31 11.5 -52.5t31 -34.5t44.5 -18.5t53 -5.5q53 0 96 17
t80.5 44.5t70.5 62.5t66 72q-20 -99 -31 -153.5t-17 -80.5t-8 -31.5t-3 -7.5h-645z" />
    <glyph glyph-name="eacute" unicode="&#xe9;" horiz-adv-x="760" 
d="M532 872l-135 -172h-66l75 172h126zM36 0q18 37 35 74t30 75.5t21 80t8 86.5q0 62 -8 108.5t-22 84.5t-33 71t-42 69h12.5h30.5t63 0.5t109 0.5h168h241l71 -224q-31 27 -64.5 51.5t-68.5 44t-71 31t-72 11.5q-43 0 -74.5 -5t-51.5 -18t-29.5 -36t-9.5 -58
q0 -38 16 -61.5t58 -23.5q27 0 50.5 10.5t43.5 26t35.5 34t26.5 34.5t17 27l6 11v-4v-13.5t-0.5 -33t-1 -63.5t-1 -104.5t-1.5 -155.5q-16 19 -33 41.5t-38 42.5t-46 33.5t-56 13.5q-34 0 -51 -20t-17 -54q0 -31 11.5 -52.5t31 -34.5t44.5 -18.5t53 -5.5q53 0 96 17
t80.5 44.5t70.5 62.5t66 72q-20 -99 -31 -153.5t-17 -80.5t-8 -31.5t-3 -7.5h-645z" />
    <glyph glyph-name="ecircumflex" unicode="&#xea;" horiz-adv-x="760" 
d="M240 700q22 17 38 38t26.5 43t15.5 43t5 37q0 8 -3 15l-3 9h120q0 -9 -1 -15t-1 -9q0 -48 23.5 -86t59.5 -75h-142q17 11 20.5 19t3.5 16q0 3 -2.5 15.5t-7 27t-10.5 25.5t-12 11q-4 0 -8 -10.5t-7.5 -23t-6 -24t-2.5 -14.5q0 -12 3 -23t14 -19h-123zM36 0q18 37 35 74
t30 75.5t21 80t8 86.5q0 62 -8 108.5t-22 84.5t-33 71t-42 69h12.5h30.5t63 0.5t109 0.5h168h241l71 -224q-31 27 -64.5 51.5t-68.5 44t-71 31t-72 11.5q-43 0 -74.5 -5t-51.5 -18t-29.5 -36t-9.5 -58q0 -38 16 -61.5t58 -23.5q27 0 50.5 10.5t43.5 26t35.5 34t26.5 34.5
t17 27l6 11v-4v-13.5t-0.5 -33t-1 -63.5t-1 -104.5t-1.5 -155.5q-16 19 -33 41.5t-38 42.5t-46 33.5t-56 13.5q-34 0 -51 -20t-17 -54q0 -31 11.5 -52.5t31 -34.5t44.5 -18.5t53 -5.5q53 0 96 17t80.5 44.5t70.5 62.5t66 72q-20 -99 -31 -153.5t-17 -80.5t-8 -31.5t-3 -7.5
h-645z" />
    <glyph glyph-name="edieresis" unicode="&#xeb;" horiz-adv-x="760" 
d="M398 761q0 26 20 40t44 14q23 0 38.5 -18t15.5 -39q0 -26 -17 -41t-41 -15q-27 0 -43.5 16t-16.5 43zM244 761q0 26 20 40t44 14q23 0 38.5 -18t15.5 -39q0 -26 -17 -41t-41 -15q-27 0 -43.5 16t-16.5 43zM36 0q18 37 35 74t30 75.5t21 80t8 86.5q0 62 -8 108.5t-22 84.5
t-33 71t-42 69h12.5h30.5t63 0.5t109 0.5h168h241l71 -224q-31 27 -64.5 51.5t-68.5 44t-71 31t-72 11.5q-43 0 -74.5 -5t-51.5 -18t-29.5 -36t-9.5 -58q0 -38 16 -61.5t58 -23.5q27 0 50.5 10.5t43.5 26t35.5 34t26.5 34.5t17 27l6 11v-4v-13.5t-0.5 -33t-1 -63.5
t-1 -104.5t-1.5 -155.5q-16 19 -33 41.5t-38 42.5t-46 33.5t-56 13.5q-34 0 -51 -20t-17 -54q0 -31 11.5 -52.5t31 -34.5t44.5 -18.5t53 -5.5q53 0 96 17t80.5 44.5t70.5 62.5t66 72q-20 -99 -31 -153.5t-17 -80.5t-8 -31.5t-3 -7.5h-645z" />
    <glyph glyph-name="igrave" unicode="&#xec;" horiz-adv-x="425" 
d="M197 872l75 -172h-66l-135 172h126zM400 650q-22 -33 -42 -68t-35 -72t-23.5 -75.5t-8.5 -78.5q0 -195 109 -356h-374q24 45 45 89.5t37 89.5t25.5 90t9.5 90q0 85 -27 156.5t-91 134.5h375z" />
    <glyph glyph-name="iacute" unicode="&#xed;" horiz-adv-x="425" 
d="M377 872l-135 -172h-66l75 172h126zM400 650q-22 -33 -42 -68t-35 -72t-23.5 -75.5t-8.5 -78.5q0 -195 109 -356h-374q24 45 45 89.5t37 89.5t25.5 90t9.5 90q0 85 -27 156.5t-91 134.5h375z" />
    <glyph glyph-name="icircumflex" unicode="&#xee;" horiz-adv-x="425" 
d="M72 700q22 17 38 38t26.5 43t15.5 43t5 37q0 8 -3 15l-3 9h120q0 -9 -1 -15t-1 -9q0 -48 23.5 -86t59.5 -75h-142q17 11 20.5 19t3.5 16q0 3 -2.5 15.5t-7 27t-10.5 25.5t-12 11q-4 0 -8 -10.5t-7.5 -23t-6 -24t-2.5 -14.5q0 -12 3 -23t14 -19h-123zM400 650
q-22 -33 -42 -68t-35 -72t-23.5 -75.5t-8.5 -78.5q0 -195 109 -356h-374q24 45 45 89.5t37 89.5t25.5 90t9.5 90q0 85 -27 156.5t-91 134.5h375z" />
    <glyph glyph-name="idieresis" unicode="&#xef;" horiz-adv-x="425" 
d="M240 761q0 26 20 40t44 14q23 0 38.5 -18t15.5 -39q0 -26 -17 -41t-41 -15q-27 0 -43.5 16t-16.5 43zM86 761q0 26 20 40t44 14q23 0 38.5 -18t15.5 -39q0 -26 -17 -41t-41 -15q-27 0 -43.5 16t-16.5 43zM400 650q-22 -33 -42 -68t-35 -72t-23.5 -75.5t-8.5 -78.5
q0 -195 109 -356h-374q24 45 45 89.5t37 89.5t25.5 90t9.5 90q0 85 -27 156.5t-91 134.5h375z" />
    <glyph glyph-name="eth" unicode="&#xf0;" horiz-adv-x="851" 
d="M375 285h-78q0 -45 3 -81.5t14 -62t33 -39.5t61 -14q42 0 79 18t64 48.5t43 70.5t16 84q0 117 -49.5 183t-149.5 66q-38 0 -59 -13t-32 -35t-14.5 -50.5t-6.5 -60.5h76v-114zM29 650h133t118.5 0.5t90.5 0.5h48q86 0 156.5 -21t120.5 -59t77.5 -90t27.5 -114
q0 -64 -19.5 -129.5t-66.5 -119t-126 -87.5t-199 -34q-15 0 -40 0.5t-67 1t-105 1t-153 0.5q38 72 69.5 142.5t45.5 142.5h-92v114h97q-5 72 -32 134t-84 117z" />
    <glyph glyph-name="ntilde" unicode="&#xf1;" horiz-adv-x="853" 
d="M335 837q3 1 5.5 1.5t5.5 0.5q17 0 37 -9.5t40.5 -21t40.5 -21t36 -9.5t23.5 9.5t11.5 20.5t6.5 21t7.5 11q5 0 8.5 -9t6.5 -20t4.5 -22t1.5 -16q0 -39 -20.5 -61t-41.5 -22q-16 0 -35 9.5t-39 20.5t-40 20.5t-37 9.5t-25 -8t-12.5 -18.5t-7.5 -19.5t-10 -11q-4 0 -7.5 8
t-6 18.5t-4 21t-1.5 14.5q0 33 16.5 55t35.5 27zM728 -66q-26 23 -41.5 38t-29.5 30.5t-32 35.5t-51 54.5t-85 87t-134 132.5q-6 6 -15.5 15t-20.5 17t-22 13.5t-22 5.5q-14 0 -21.5 -11t-11 -26t-4 -30t-0.5 -24q0 -38 10 -74.5t26.5 -70.5t38 -65.5t45.5 -61.5h-333
q26 37 44.5 71.5t30.5 73t18 84.5t6 106q0 82 -21 164.5t-77 150.5h320q0 -39 17 -80t43.5 -80t58.5 -73.5t61 -60t51.5 -40.5t30.5 -15q11 0 14 22t3 52q0 81 -28.5 147.5t-88.5 127.5h340q-31 -42 -53.5 -87t-37.5 -91.5t-22 -92.5t-7 -88v-357z" />
    <glyph glyph-name="ograve" unicode="&#xf2;" 
d="M420 872l75 -172h-66l-135 172h126zM241 324q0 -48 10 -93t33 -79.5t60 -55t91 -20.5q52 0 89 20.5t61 54.5t35 78.5t11 91.5q0 45 -8.5 90t-29.5 81t-56 59t-88 23q-54 0 -93.5 -20.5t-65 -55t-37.5 -79.5t-12 -95zM816 324q0 -77 -30 -141t-80.5 -110t-117.5 -71.5
t-142 -25.5q-78 0 -150 19.5t-126.5 61t-87 105.5t-32.5 153q0 86 31 152.5t83.5 111.5t121 68.5t143.5 23.5q83 0 153.5 -22.5t122.5 -66t81.5 -108.5t29.5 -150z" />
    <glyph glyph-name="oacute" unicode="&#xf3;" 
d="M596 872l-135 -172h-66l75 172h126zM241 324q0 -48 10 -93t33 -79.5t60 -55t91 -20.5q52 0 89 20.5t61 54.5t35 78.5t11 91.5q0 45 -8.5 90t-29.5 81t-56 59t-88 23q-54 0 -93.5 -20.5t-65 -55t-37.5 -79.5t-12 -95zM816 324q0 -77 -30 -141t-80.5 -110t-117.5 -71.5
t-142 -25.5q-78 0 -150 19.5t-126.5 61t-87 105.5t-32.5 153q0 86 31 152.5t83.5 111.5t121 68.5t143.5 23.5q83 0 153.5 -22.5t122.5 -66t81.5 -108.5t29.5 -150z" />
    <glyph glyph-name="ocircumflex" unicode="&#xf4;" 
d="M293 700q22 17 38 38t26.5 43t15.5 43t5 37q0 8 -3 15l-3 9h120q0 -9 -1 -15t-1 -9q0 -48 23.5 -86t59.5 -75h-142q17 11 20.5 19t3.5 16q0 3 -2.5 15.5t-7 27t-10.5 25.5t-12 11q-4 0 -8 -10.5t-7.5 -23t-6 -24t-2.5 -14.5q0 -12 3 -23t14 -19h-123zM241 324
q0 -48 10 -93t33 -79.5t60 -55t91 -20.5q52 0 89 20.5t61 54.5t35 78.5t11 91.5q0 45 -8.5 90t-29.5 81t-56 59t-88 23q-54 0 -93.5 -20.5t-65 -55t-37.5 -79.5t-12 -95zM816 324q0 -77 -30 -141t-80.5 -110t-117.5 -71.5t-142 -25.5q-78 0 -150 19.5t-126.5 61t-87 105.5
t-32.5 153q0 86 31 152.5t83.5 111.5t121 68.5t143.5 23.5q83 0 153.5 -22.5t122.5 -66t81.5 -108.5t29.5 -150z" />
    <glyph glyph-name="otilde" unicode="&#xf5;" 
d="M349 847q3 1 5.5 1.5t5.5 0.5q17 0 37 -9.5t40.5 -21t40.5 -21t36 -9.5t23.5 9.5t11.5 20.5t6.5 21t7.5 11q5 0 8.5 -9t6.5 -20t4.5 -22t1.5 -16q0 -39 -20.5 -61t-41.5 -22q-16 0 -35 9.5t-39 20.5t-40 20.5t-37 9.5t-25 -8t-12.5 -18.5t-7.5 -19.5t-10 -11q-4 0 -7.5 8
t-6 18.5t-4 21t-1.5 14.5q0 33 16.5 55t35.5 27zM241 324q0 -48 10 -93t33 -79.5t60 -55t91 -20.5q52 0 89 20.5t61 54.5t35 78.5t11 91.5q0 45 -8.5 90t-29.5 81t-56 59t-88 23q-54 0 -93.5 -20.5t-65 -55t-37.5 -79.5t-12 -95zM816 324q0 -77 -30 -141t-80.5 -110
t-117.5 -71.5t-142 -25.5q-78 0 -150 19.5t-126.5 61t-87 105.5t-32.5 153q0 86 31 152.5t83.5 111.5t121 68.5t143.5 23.5q83 0 153.5 -22.5t122.5 -66t81.5 -108.5t29.5 -150z" />
    <glyph glyph-name="odieresis" unicode="&#xf6;" 
d="M451 761q0 26 20 40t44 14q23 0 38.5 -18t15.5 -39q0 -26 -17 -41t-41 -15q-27 0 -43.5 16t-16.5 43zM297 761q0 26 20 40t44 14q23 0 38.5 -18t15.5 -39q0 -26 -17 -41t-41 -15q-27 0 -43.5 16t-16.5 43zM241 324q0 -48 10 -93t33 -79.5t60 -55t91 -20.5q52 0 89 20.5
t61 54.5t35 78.5t11 91.5q0 45 -8.5 90t-29.5 81t-56 59t-88 23q-54 0 -93.5 -20.5t-65 -55t-37.5 -79.5t-12 -95zM816 324q0 -77 -30 -141t-80.5 -110t-117.5 -71.5t-142 -25.5q-78 0 -150 19.5t-126.5 61t-87 105.5t-32.5 153q0 86 31 152.5t83.5 111.5t121 68.5
t143.5 23.5q83 0 153.5 -22.5t122.5 -66t81.5 -108.5t29.5 -150z" />
    <glyph glyph-name="divide" unicode="&#xf7;" horiz-adv-x="400" 
d="M140 476q0 28 17 43.5t43 15.5q25 0 41 -16t16 -41q0 -24 -16 -41.5t-41 -17.5q-26 0 -43 16t-17 41zM137 148q0 26 20.5 40.5t44.5 14.5q23 0 39 -18.5t16 -40.5q0 -26 -17 -42t-42 -16q-27 0 -44 17t-17 45zM348 254h-297v114h297v-114z" />
    <glyph glyph-name="oslash" unicode="&#xf8;" 
d="M631 321q0 46 -9 92.5t-32 83.5q-34 -51 -63.5 -99t-57.5 -96t-56 -99.5t-60 -110.5q33 -16 82 -16q52 0 89 20.5t61 54.5t35 78.5t11 91.5zM241 324q0 -49 10.5 -93.5t33.5 -79.5q66 100 124.5 199t119.5 205q-17 9 -36.5 14t-43.5 5q-54 0 -93.5 -20.5t-65 -55
t-37.5 -79.5t-12 -95zM119 -67q6 6 16 17t19.5 22t17.5 20.5t10 12.5q5 8 10.5 14.5t10.5 14.5q-69 40 -111 109t-42 172q0 86 31 152.5t83.5 111.5t121 68.5t143.5 23.5q79 0 148 -21q5 14 7.5 29.5t2.5 30.5h174q-22 -26 -46.5 -51.5t-44.5 -50.5q69 -43 107.5 -113.5
t38.5 -170.5q0 -77 -30 -141t-80.5 -110t-117.5 -71.5t-142 -25.5q-70 0 -140 17q-5 -15 -9 -30.5t-7 -29.5h-171z" />
    <glyph glyph-name="ugrave" unicode="&#xf9;" horiz-adv-x="774" 
d="M368 872l75 -172h-66l-135 172h126zM96 208q0 20 0.5 34.5t1 32.5t1 43.5t0.5 68.5q0 39 -4.5 75t-15 69t-28.5 62.5t-46 56.5h355q-23 -37 -40 -72.5t-28 -71t-16.5 -73.5t-5.5 -82q0 -26 0.5 -56t4.5 -60.5t13 -59t25 -50.5t41 -35t61 -13q50 0 78.5 30t42 73
t16.5 90.5t3 82.5q0 89 -18 146t-40 90t-42 46.5t-23 14.5h337q-45 -52 -69.5 -105.5t-24.5 -119.5v-260q0 -49 -26.5 -83.5t-66.5 -56.5t-86.5 -32t-85.5 -10q-60 0 -116.5 10.5t-100.5 36t-70.5 69t-26.5 109.5z" />
    <glyph glyph-name="uacute" unicode="&#xfa;" horiz-adv-x="774" 
d="M564 872l-135 -172h-66l75 172h126zM96 208q0 20 0.5 34.5t1 32.5t1 43.5t0.5 68.5q0 39 -4.5 75t-15 69t-28.5 62.5t-46 56.5h355q-23 -37 -40 -72.5t-28 -71t-16.5 -73.5t-5.5 -82q0 -26 0.5 -56t4.5 -60.5t13 -59t25 -50.5t41 -35t61 -13q50 0 78.5 30t42 73
t16.5 90.5t3 82.5q0 89 -18 146t-40 90t-42 46.5t-23 14.5h337q-45 -52 -69.5 -105.5t-24.5 -119.5v-260q0 -49 -26.5 -83.5t-66.5 -56.5t-86.5 -32t-85.5 -10q-60 0 -116.5 10.5t-100.5 36t-70.5 69t-26.5 109.5z" />
    <glyph glyph-name="ucircumflex" unicode="&#xfb;" horiz-adv-x="774" 
d="M270 700q22 17 38 38t26.5 43t15.5 43t5 37q0 8 -3 15l-3 9h120q0 -9 -1 -15t-1 -9q0 -48 23.5 -86t59.5 -75h-142q17 11 20.5 19t3.5 16q0 3 -2.5 15.5t-7 27t-10.5 25.5t-12 11q-4 0 -8 -10.5t-7.5 -23t-6 -24t-2.5 -14.5q0 -12 3 -23t14 -19h-123zM96 208
q0 20 0.5 34.5t1 32.5t1 43.5t0.5 68.5q0 39 -4.5 75t-15 69t-28.5 62.5t-46 56.5h355q-23 -37 -40 -72.5t-28 -71t-16.5 -73.5t-5.5 -82q0 -26 0.5 -56t4.5 -60.5t13 -59t25 -50.5t41 -35t61 -13q50 0 78.5 30t42 73t16.5 90.5t3 82.5q0 89 -18 146t-40 90t-42 46.5
t-23 14.5h337q-45 -52 -69.5 -105.5t-24.5 -119.5v-260q0 -49 -26.5 -83.5t-66.5 -56.5t-86.5 -32t-85.5 -10q-60 0 -116.5 10.5t-100.5 36t-70.5 69t-26.5 109.5z" />
    <glyph glyph-name="udieresis" unicode="&#xfc;" horiz-adv-x="774" 
d="M422 761q0 26 20 40t44 14q23 0 38.5 -18t15.5 -39q0 -26 -17 -41t-41 -15q-27 0 -43.5 16t-16.5 43zM268 761q0 26 20 40t44 14q23 0 38.5 -18t15.5 -39q0 -26 -17 -41t-41 -15q-27 0 -43.5 16t-16.5 43zM96 208q0 20 0.5 34.5t1 32.5t1 43.5t0.5 68.5q0 39 -4.5 75
t-15 69t-28.5 62.5t-46 56.5h355q-23 -37 -40 -72.5t-28 -71t-16.5 -73.5t-5.5 -82q0 -26 0.5 -56t4.5 -60.5t13 -59t25 -50.5t41 -35t61 -13q50 0 78.5 30t42 73t16.5 90.5t3 82.5q0 89 -18 146t-40 90t-42 46.5t-23 14.5h337q-45 -52 -69.5 -105.5t-24.5 -119.5v-260
q0 -49 -26.5 -83.5t-66.5 -56.5t-86.5 -32t-85.5 -10q-60 0 -116.5 10.5t-100.5 36t-70.5 69t-26.5 109.5z" />
    <glyph glyph-name="yacute" unicode="&#xfd;" horiz-adv-x="859" 
d="M632 873l-135 -172h-66l75 172h126zM215 0q23 18 45.5 34.5t39.5 36t27.5 46t10.5 65.5q0 45 -21.5 93t-49.5 90q-30 42 -58 82.5t-59 77.5t-66 68.5t-79 56.5h395q-6 -9 -14.5 -17t-16.5 -18.5t-13.5 -24.5t-5.5 -34q0 -10 12 -38t29 -57t36 -51.5t32 -22.5
q12 0 29.5 21t34 50.5t28.5 61t12 53.5q0 26 -13.5 44t-28.5 33h333q-13 -10 -27.5 -18.5t-35.5 -24t-49.5 -42t-69.5 -72.5q-27 -30 -56 -65.5t-52.5 -75.5t-39 -83t-15.5 -87q0 -60 31.5 -106.5t82.5 -75.5h-408z" />
    <glyph glyph-name="thorn" unicode="&#xfe;" horiz-adv-x="854" 
d="M634 313q0 31 -13.5 52.5t-35 35t-49 19.5t-55.5 6t-52.5 -5.5t-42.5 -19t-28.5 -36t-10.5 -57.5q0 -31 10.5 -51.5t28.5 -33t42.5 -18t52.5 -5.5t55.5 6t49 19.5t35 35t13.5 52.5zM400 650q-7 -10 -15.5 -19.5t-16 -19.5t-13 -21t-5.5 -23q0 -25 16.5 -36t39.5 -11h117
q95 0 154 -20t91.5 -51t44 -68t11.5 -71q0 -44 -20.5 -81.5t-59 -64.5t-94.5 -42.5t-127 -15.5h-117q-18 0 -35 -4t-17 -23q0 -23 16 -42t30 -37h-374q24 45 45 89.5t37 89.5t25.5 90t9.5 90q0 85 -27 156.5t-91 134.5h375z" />
    <glyph glyph-name="ydieresis" unicode="&#xff;" horiz-adv-x="859" 
d="M480 760q0 26 20 40t44 14q23 0 38.5 -18t15.5 -39q0 -26 -17 -41t-41 -15q-27 0 -43.5 16t-16.5 43zM326 760q0 26 20 40t44 14q23 0 38.5 -18t15.5 -39q0 -26 -17 -41t-41 -15q-27 0 -43.5 16t-16.5 43zM215 0q23 18 45.5 34.5t39.5 36t27.5 46t10.5 65.5
q0 45 -21.5 93t-49.5 90q-30 42 -58 82.5t-59 77.5t-66 68.5t-79 56.5h395q-6 -9 -14.5 -17t-16.5 -18.5t-13.5 -24.5t-5.5 -34q0 -10 12 -38t29 -57t36 -51.5t32 -22.5q12 0 29.5 21t34 50.5t28.5 61t12 53.5q0 26 -13.5 44t-28.5 33h333q-13 -10 -27.5 -18.5t-35.5 -24
t-49.5 -42t-69.5 -72.5q-27 -30 -56 -65.5t-52.5 -75.5t-39 -83t-15.5 -87q0 -60 31.5 -106.5t82.5 -75.5h-408z" />
    <glyph glyph-name="Amacron" unicode="&#x100;" horiz-adv-x="865" 
d="M555 700h-297v84h297v-84zM301 293q0 -17 9 -30t28 -13h109q21 0 31.5 14.5t10.5 34.5q0 16 -9.5 45.5t-23.5 58.5t-30.5 50.5t-30.5 21.5q-15 0 -31.5 -24.5t-30.5 -56t-23 -61t-9 -40.5zM5 0q43 55 82 117.5t69 129.5t47.5 138t17.5 143q0 30 -3 61t-11 61h398l1 -1
q-2 -14 -2 -27v-27q0 -85 21.5 -163.5t57.5 -152.5t82 -143.5t95 -135.5h-317q11 18 18.5 36t7.5 41q0 26 -13 41t-33 22.5t-44 9t-46 1.5h-21q-27 0 -53.5 -1.5t-47.5 -8t-34 -20t-13 -36.5q0 -22 10 -44.5t24 -40.5h-293z" />
    <glyph glyph-name="amacron" unicode="&#x101;" horiz-adv-x="865" 
d="M555 700h-297v84h297v-84zM301 293q0 -17 9 -30t28 -13h109q21 0 31.5 14.5t10.5 34.5q0 16 -9.5 45.5t-23.5 58.5t-30.5 50.5t-30.5 21.5q-15 0 -31.5 -24.5t-30.5 -56t-23 -61t-9 -40.5zM5 0q43 55 82 117.5t69 129.5t47.5 138t17.5 143q0 30 -3 61t-11 61h398l1 -1
q-2 -14 -2 -27v-27q0 -85 21.5 -163.5t57.5 -152.5t82 -143.5t95 -135.5h-317q11 18 18.5 36t7.5 41q0 26 -13 41t-33 22.5t-44 9t-46 1.5h-21q-27 0 -53.5 -1.5t-47.5 -8t-34 -20t-13 -36.5q0 -22 10 -44.5t24 -40.5h-293z" />
    <glyph glyph-name="Abreve" unicode="&#x102;" horiz-adv-x="865" 
d="M356 799q0 -23 9.5 -40.5t33.5 -17.5q23 0 34 17t11 40v2h76q0 -24 -9.5 -44t-25 -35t-36.5 -23t-45 -8t-46.5 6t-40 19.5t-27.5 34t-10 48.5v2h76v-1zM301 293q0 -17 9 -30t28 -13h109q21 0 31.5 14.5t10.5 34.5q0 16 -9.5 45.5t-23.5 58.5t-30.5 50.5t-30.5 21.5
q-15 0 -31.5 -24.5t-30.5 -56t-23 -61t-9 -40.5zM5 0q43 55 82 117.5t69 129.5t47.5 138t17.5 143q0 30 -3 61t-11 61h398l1 -1q-2 -14 -2 -27v-27q0 -85 21.5 -163.5t57.5 -152.5t82 -143.5t95 -135.5h-317q11 18 18.5 36t7.5 41q0 26 -13 41t-33 22.5t-44 9t-46 1.5h-21
q-27 0 -53.5 -1.5t-47.5 -8t-34 -20t-13 -36.5q0 -22 10 -44.5t24 -40.5h-293z" />
    <glyph glyph-name="abreve" unicode="&#x103;" horiz-adv-x="865" 
d="M356 799q0 -23 9.5 -40.5t33.5 -17.5q23 0 34 17t11 40v2h76q0 -24 -9.5 -44t-25 -35t-36.5 -23t-45 -8t-46.5 6t-40 19.5t-27.5 34t-10 48.5v2h76v-1zM301 293q0 -17 9 -30t28 -13h109q21 0 31.5 14.5t10.5 34.5q0 16 -9.5 45.5t-23.5 58.5t-30.5 50.5t-30.5 21.5
q-15 0 -31.5 -24.5t-30.5 -56t-23 -61t-9 -40.5zM5 0q43 55 82 117.5t69 129.5t47.5 138t17.5 143q0 30 -3 61t-11 61h398l1 -1q-2 -14 -2 -27v-27q0 -85 21.5 -163.5t57.5 -152.5t82 -143.5t95 -135.5h-317q11 18 18.5 36t7.5 41q0 26 -13 41t-33 22.5t-44 9t-46 1.5h-21
q-27 0 -53.5 -1.5t-47.5 -8t-34 -20t-13 -36.5q0 -22 10 -44.5t24 -40.5h-293z" />
    <glyph glyph-name="Aogonek" unicode="&#x104;" horiz-adv-x="865" 
d="M301 293q0 -17 9 -30t28 -13h109q21 0 31.5 14.5t10.5 34.5q0 16 -9.5 45.5t-23.5 58.5t-30.5 50.5t-30.5 21.5q-15 0 -31.5 -24.5t-30.5 -56t-23 -61t-9 -40.5zM723 -37q12 -26 19.5 -40.5t14.5 -24.5t15 -19.5t21 -25.5q-30 0 -48 -16t-39 -35.5t-53.5 -35.5t-91.5 -16
q-15 0 -31.5 4.5t-31 14.5t-24 27t-9.5 42q0 43 16.5 79.5t36 67t35.5 53.5t16 39q0 26 -13 41t-33 22.5t-44 9t-46 1.5h-21q-27 0 -53.5 -1.5t-47.5 -8t-34 -20t-13 -36.5q0 -22 10 -44.5t24 -40.5h-293q43 55 82 117.5t69 129.5t47.5 138t17.5 143q0 30 -3 61t-11 61h398
l1 -1q-2 -14 -2 -27v-27q0 -85 21.5 -163.5t57.5 -152.5t82 -143.5t95 -135.5h-252q-17 -28 -28 -56.5t-11 -55.5q0 -32 13.5 -46.5t33.5 -14.5q29 0 49 13t33 33t19 44t6 46z" />
    <glyph glyph-name="aogonek" unicode="&#x105;" horiz-adv-x="865" 
d="M301 293q0 -17 9 -30t28 -13h109q21 0 31.5 14.5t10.5 34.5q0 16 -9.5 45.5t-23.5 58.5t-30.5 50.5t-30.5 21.5q-15 0 -31.5 -24.5t-30.5 -56t-23 -61t-9 -40.5zM723 -37q12 -26 19.5 -40.5t14.5 -24.5t15 -19.5t21 -25.5q-30 0 -48 -16t-39 -35.5t-53.5 -35.5t-91.5 -16
q-15 0 -31.5 4.5t-31 14.5t-24 27t-9.5 42q0 43 16.5 79.5t36 67t35.5 53.5t16 39q0 26 -13 41t-33 22.5t-44 9t-46 1.5h-21q-27 0 -53.5 -1.5t-47.5 -8t-34 -20t-13 -36.5q0 -22 10 -44.5t24 -40.5h-293q43 55 82 117.5t69 129.5t47.5 138t17.5 143q0 30 -3 61t-11 61h398
l1 -1q-2 -14 -2 -27v-27q0 -85 21.5 -163.5t57.5 -152.5t82 -143.5t95 -135.5h-252q-17 -28 -28 -56.5t-11 -55.5q0 -32 13.5 -46.5t33.5 -14.5q29 0 49 13t33 33t19 44t6 46z" />
    <glyph glyph-name="Cacute" unicode="&#x106;" horiz-adv-x="743" 
d="M545 872l-135 -172h-66l75 172h126zM654 226q28 0 41 -22.5t13 -46.5q0 -43 -19.5 -77t-56 -58t-88 -37t-115.5 -13q-104 0 -176.5 28t-117.5 75t-65 108t-20 128q0 84 30 150.5t78 113t108.5 71t121.5 24.5q45 0 72 -2.5t45.5 -6t31.5 -6t29 -2.5q28 0 49.5 10.5
t49.5 35.5l33 -349q-18 30 -43 68.5t-58 73t-74 58t-91 23.5q-49 0 -84.5 -21.5t-58 -56t-33 -77.5t-10.5 -87q0 -57 11 -106t36.5 -85.5t67 -57.5t102.5 -21q34 0 62.5 7t49.5 20.5t32.5 33.5t11.5 45q0 9 -0.5 13.5t-1.5 7.5t-2 6.5t-2 9.5q0 12 15.5 17t25.5 5z" />
    <glyph glyph-name="cacute" unicode="&#x107;" horiz-adv-x="743" 
d="M545 872l-135 -172h-66l75 172h126zM654 226q28 0 41 -22.5t13 -46.5q0 -43 -19.5 -77t-56 -58t-88 -37t-115.5 -13q-104 0 -176.5 28t-117.5 75t-65 108t-20 128q0 84 30 150.5t78 113t108.5 71t121.5 24.5q45 0 72 -2.5t45.5 -6t31.5 -6t29 -2.5q28 0 49.5 10.5
t49.5 35.5l33 -349q-18 30 -43 68.5t-58 73t-74 58t-91 23.5q-49 0 -84.5 -21.5t-58 -56t-33 -77.5t-10.5 -87q0 -57 11 -106t36.5 -85.5t67 -57.5t102.5 -21q34 0 62.5 7t49.5 20.5t32.5 33.5t11.5 45q0 9 -0.5 13.5t-1.5 7.5t-2 6.5t-2 9.5q0 12 15.5 17t25.5 5z" />
    <glyph glyph-name="Ccircumflex" unicode="&#x108;" horiz-adv-x="743" 
d="M271 700q22 17 38 38t26.5 43t15.5 43t5 37q0 8 -3 15l-3 9h120q0 -9 -1 -15t-1 -9q0 -48 23.5 -86t59.5 -75h-142q17 11 20.5 19t3.5 16q0 3 -2.5 15.5t-7 27t-10.5 25.5t-12 11q-4 0 -8 -10.5t-7.5 -23t-6 -24t-2.5 -14.5q0 -12 3 -23t14 -19h-123zM654 226
q28 0 41 -22.5t13 -46.5q0 -43 -19.5 -77t-56 -58t-88 -37t-115.5 -13q-104 0 -176.5 28t-117.5 75t-65 108t-20 128q0 84 30 150.5t78 113t108.5 71t121.5 24.5q45 0 72 -2.5t45.5 -6t31.5 -6t29 -2.5q28 0 49.5 10.5t49.5 35.5l33 -349q-18 30 -43 68.5t-58 73t-74 58
t-91 23.5q-49 0 -84.5 -21.5t-58 -56t-33 -77.5t-10.5 -87q0 -57 11 -106t36.5 -85.5t67 -57.5t102.5 -21q34 0 62.5 7t49.5 20.5t32.5 33.5t11.5 45q0 9 -0.5 13.5t-1.5 7.5t-2 6.5t-2 9.5q0 12 15.5 17t25.5 5z" />
    <glyph glyph-name="ccircumflex" unicode="&#x109;" horiz-adv-x="743" 
d="M271 700q22 17 38 38t26.5 43t15.5 43t5 37q0 8 -3 15l-3 9h120q0 -9 -1 -15t-1 -9q0 -48 23.5 -86t59.5 -75h-142q17 11 20.5 19t3.5 16q0 3 -2.5 15.5t-7 27t-10.5 25.5t-12 11q-4 0 -8 -10.5t-7.5 -23t-6 -24t-2.5 -14.5q0 -12 3 -23t14 -19h-123zM654 226
q28 0 41 -22.5t13 -46.5q0 -43 -19.5 -77t-56 -58t-88 -37t-115.5 -13q-104 0 -176.5 28t-117.5 75t-65 108t-20 128q0 84 30 150.5t78 113t108.5 71t121.5 24.5q45 0 72 -2.5t45.5 -6t31.5 -6t29 -2.5q28 0 49.5 10.5t49.5 35.5l33 -349q-18 30 -43 68.5t-58 73t-74 58
t-91 23.5q-49 0 -84.5 -21.5t-58 -56t-33 -77.5t-10.5 -87q0 -57 11 -106t36.5 -85.5t67 -57.5t102.5 -21q34 0 62.5 7t49.5 20.5t32.5 33.5t11.5 45q0 9 -0.5 13.5t-1.5 7.5t-2 6.5t-2 9.5q0 12 15.5 17t25.5 5z" />
    <glyph glyph-name="Cdotaccent" unicode="&#x10a;" horiz-adv-x="743" 
d="M333 750q0 27 17 42.5t43 15.5q24 0 40 -16t16 -40t-16 -41t-40 -17q-26 0 -43 16t-17 40zM654 226q28 0 41 -22.5t13 -46.5q0 -43 -19.5 -77t-56 -58t-88 -37t-115.5 -13q-104 0 -176.5 28t-117.5 75t-65 108t-20 128q0 84 30 150.5t78 113t108.5 71t121.5 24.5
q45 0 72 -2.5t45.5 -6t31.5 -6t29 -2.5q28 0 49.5 10.5t49.5 35.5l33 -349q-18 30 -43 68.5t-58 73t-74 58t-91 23.5q-49 0 -84.5 -21.5t-58 -56t-33 -77.5t-10.5 -87q0 -57 11 -106t36.5 -85.5t67 -57.5t102.5 -21q34 0 62.5 7t49.5 20.5t32.5 33.5t11.5 45q0 9 -0.5 13.5
t-1.5 7.5t-2 6.5t-2 9.5q0 12 15.5 17t25.5 5z" />
    <glyph glyph-name="cdotaccent" unicode="&#x10b;" horiz-adv-x="743" 
d="M333 750q0 27 17 42.5t43 15.5q24 0 40 -16t16 -40t-16 -41t-40 -17q-26 0 -43 16t-17 40zM654 226q28 0 41 -22.5t13 -46.5q0 -43 -19.5 -77t-56 -58t-88 -37t-115.5 -13q-104 0 -176.5 28t-117.5 75t-65 108t-20 128q0 84 30 150.5t78 113t108.5 71t121.5 24.5
q45 0 72 -2.5t45.5 -6t31.5 -6t29 -2.5q28 0 49.5 10.5t49.5 35.5l33 -349q-18 30 -43 68.5t-58 73t-74 58t-91 23.5q-49 0 -84.5 -21.5t-58 -56t-33 -77.5t-10.5 -87q0 -57 11 -106t36.5 -85.5t67 -57.5t102.5 -21q34 0 62.5 7t49.5 20.5t32.5 33.5t11.5 45q0 9 -0.5 13.5
t-1.5 7.5t-2 6.5t-2 9.5q0 12 15.5 17t25.5 5z" />
    <glyph glyph-name="Ccaron" unicode="&#x10c;" horiz-adv-x="743" 
d="M538 884q-22 -17 -38 -38t-26.5 -43t-15.5 -42.5t-5 -37.5q0 -7 3 -15l3 -9h-120q0 9 1 15t1 9q0 48 -23.5 86t-59.5 75h142q-17 -11 -20.5 -19t-3.5 -16q0 -3 3 -15.5t7.5 -27t10 -25.5t11.5 -11q4 0 8 10.5t7.5 23t6 24t2.5 14.5q0 12 -3 23t-14 19h123zM654 226
q28 0 41 -22.5t13 -46.5q0 -43 -19.5 -77t-56 -58t-88 -37t-115.5 -13q-104 0 -176.5 28t-117.5 75t-65 108t-20 128q0 84 30 150.5t78 113t108.5 71t121.5 24.5q45 0 72 -2.5t45.5 -6t31.5 -6t29 -2.5q28 0 49.5 10.5t49.5 35.5l33 -349q-18 30 -43 68.5t-58 73t-74 58
t-91 23.5q-49 0 -84.5 -21.5t-58 -56t-33 -77.5t-10.5 -87q0 -57 11 -106t36.5 -85.5t67 -57.5t102.5 -21q34 0 62.5 7t49.5 20.5t32.5 33.5t11.5 45q0 9 -0.5 13.5t-1.5 7.5t-2 6.5t-2 9.5q0 12 15.5 17t25.5 5z" />
    <glyph glyph-name="ccaron" unicode="&#x10d;" horiz-adv-x="743" 
d="M538 884q-22 -17 -38 -38t-26.5 -43t-15.5 -42.5t-5 -37.5q0 -7 3 -15l3 -9h-120q0 9 1 15t1 9q0 48 -23.5 86t-59.5 75h142q-17 -11 -20.5 -19t-3.5 -16q0 -3 3 -15.5t7.5 -27t10 -25.5t11.5 -11q4 0 8 10.5t7.5 23t6 24t2.5 14.5q0 12 -3 23t-14 19h123zM654 226
q28 0 41 -22.5t13 -46.5q0 -43 -19.5 -77t-56 -58t-88 -37t-115.5 -13q-104 0 -176.5 28t-117.5 75t-65 108t-20 128q0 84 30 150.5t78 113t108.5 71t121.5 24.5q45 0 72 -2.5t45.5 -6t31.5 -6t29 -2.5q28 0 49.5 10.5t49.5 35.5l33 -349q-18 30 -43 68.5t-58 73t-74 58
t-91 23.5q-49 0 -84.5 -21.5t-58 -56t-33 -77.5t-10.5 -87q0 -57 11 -106t36.5 -85.5t67 -57.5t102.5 -21q34 0 62.5 7t49.5 20.5t32.5 33.5t11.5 45q0 9 -0.5 13.5t-1.5 7.5t-2 6.5t-2 9.5q0 12 15.5 17t25.5 5z" />
    <glyph glyph-name="Dcaron" unicode="&#x10e;" horiz-adv-x="851" 
d="M521 886q-22 -17 -38 -38t-26.5 -43t-15.5 -42.5t-5 -37.5q0 -7 3 -15l3 -9h-120q0 9 1 15t1 9q0 48 -23.5 86t-59.5 75h142q-17 -11 -20.5 -19t-3.5 -16q0 -3 3 -15.5t7.5 -27t10 -25.5t11.5 -11q4 0 8 10.5t7.5 23t6 24t2.5 14.5q0 12 -3 23t-14 19h123zM297 305
q0 -49 2 -89.5t13 -68.5t33.5 -43.5t62.5 -15.5q42 0 79 18t64 48.5t43 70.5t16 84q0 117 -49.5 183t-149.5 66q-35 0 -55.5 -11.5t-32 -31t-16 -46t-7.5 -56.5q-2 -28 -2.5 -54t-0.5 -54zM29 650h133t118.5 0.5t90.5 0.5h48q86 0 156.5 -21t120.5 -59t77.5 -90t27.5 -114
q0 -64 -19.5 -129.5t-66.5 -119t-126 -87.5t-199 -34q-15 0 -40 0.5t-67 1t-105 1t-153 0.5q24 45 46 89.5t39 89.5t27 90t10 90q0 85 -27 156.5t-91 134.5z" />
    <glyph glyph-name="dcaron" unicode="&#x10f;" horiz-adv-x="851" 
d="M521 886q-22 -17 -38 -38t-26.5 -43t-15.5 -42.5t-5 -37.5q0 -7 3 -15l3 -9h-120q0 9 1 15t1 9q0 48 -23.5 86t-59.5 75h142q-17 -11 -20.5 -19t-3.5 -16q0 -3 3 -15.5t7.5 -27t10 -25.5t11.5 -11q4 0 8 10.5t7.5 23t6 24t2.5 14.5q0 12 -3 23t-14 19h123zM297 305
q0 -49 2 -89.5t13 -68.5t33.5 -43.5t62.5 -15.5q42 0 79 18t64 48.5t43 70.5t16 84q0 117 -49.5 183t-149.5 66q-35 0 -55.5 -11.5t-32 -31t-16 -46t-7.5 -56.5q-2 -28 -2.5 -54t-0.5 -54zM29 650h133t118.5 0.5t90.5 0.5h48q86 0 156.5 -21t120.5 -59t77.5 -90t27.5 -114
q0 -64 -19.5 -129.5t-66.5 -119t-126 -87.5t-199 -34q-15 0 -40 0.5t-67 1t-105 1t-153 0.5q24 45 46 89.5t39 89.5t27 90t10 90q0 85 -27 156.5t-91 134.5z" />
    <glyph glyph-name="Dcroat" unicode="&#x110;" horiz-adv-x="851" 
d="M455 285h-158q0 -45 3 -81.5t14 -62t33 -39.5t61 -14q42 0 79 18t64 48.5t43 70.5t16 84q0 117 -49.5 183t-149.5 66q-38 0 -59 -13t-32 -35t-14.5 -50.5t-6.5 -60.5h156v-114zM29 650h133t118.5 0.5t90.5 0.5h48q86 0 156.5 -21t120.5 -59t77.5 -90t27.5 -114
q0 -64 -19.5 -129.5t-66.5 -119t-126 -87.5t-199 -34q-15 0 -40 0.5t-67 1t-105 1t-153 0.5q38 72 69.5 142.5t45.5 142.5h-92v114h97q-5 72 -32 134t-84 117z" />
    <glyph glyph-name="dcroat" unicode="&#x111;" horiz-adv-x="851" 
d="M455 285h-158q0 -45 3 -81.5t14 -62t33 -39.5t61 -14q42 0 79 18t64 48.5t43 70.5t16 84q0 117 -49.5 183t-149.5 66q-38 0 -59 -13t-32 -35t-14.5 -50.5t-6.5 -60.5h156v-114zM29 650h133t118.5 0.5t90.5 0.5h48q86 0 156.5 -21t120.5 -59t77.5 -90t27.5 -114
q0 -64 -19.5 -129.5t-66.5 -119t-126 -87.5t-199 -34q-15 0 -40 0.5t-67 1t-105 1t-153 0.5q38 72 69.5 142.5t45.5 142.5h-92v114h97q-5 72 -32 134t-84 117z" />
    <glyph glyph-name="Emacron" unicode="&#x112;" horiz-adv-x="760" 
d="M528 700h-297v84h297v-84zM36 0q18 37 35 74t30 75.5t21 80t8 86.5q0 62 -8 108.5t-22 84.5t-33 71t-42 69h12.5h30.5t63 0.5t109 0.5h168h241l71 -224q-31 27 -64.5 51.5t-68.5 44t-71 31t-72 11.5q-43 0 -74.5 -5t-51.5 -18t-29.5 -36t-9.5 -58q0 -38 16 -61.5
t58 -23.5q27 0 50.5 10.5t43.5 26t35.5 34t26.5 34.5t17 27l6 11v-4v-13.5t-0.5 -33t-1 -63.5t-1 -104.5t-1.5 -155.5q-16 19 -33 41.5t-38 42.5t-46 33.5t-56 13.5q-34 0 -51 -20t-17 -54q0 -31 11.5 -52.5t31 -34.5t44.5 -18.5t53 -5.5q53 0 96 17t80.5 44.5t70.5 62.5
t66 72q-20 -99 -31 -153.5t-17 -80.5t-8 -31.5t-3 -7.5h-645z" />
    <glyph glyph-name="emacron" unicode="&#x113;" horiz-adv-x="760" 
d="M528 700h-297v84h297v-84zM36 0q18 37 35 74t30 75.5t21 80t8 86.5q0 62 -8 108.5t-22 84.5t-33 71t-42 69h12.5h30.5t63 0.5t109 0.5h168h241l71 -224q-31 27 -64.5 51.5t-68.5 44t-71 31t-72 11.5q-43 0 -74.5 -5t-51.5 -18t-29.5 -36t-9.5 -58q0 -38 16 -61.5
t58 -23.5q27 0 50.5 10.5t43.5 26t35.5 34t26.5 34.5t17 27l6 11v-4v-13.5t-0.5 -33t-1 -63.5t-1 -104.5t-1.5 -155.5q-16 19 -33 41.5t-38 42.5t-46 33.5t-56 13.5q-34 0 -51 -20t-17 -54q0 -31 11.5 -52.5t31 -34.5t44.5 -18.5t53 -5.5q53 0 96 17t80.5 44.5t70.5 62.5
t66 72q-20 -99 -31 -153.5t-17 -80.5t-8 -31.5t-3 -7.5h-645z" />
    <glyph glyph-name="Ebreve" unicode="&#x114;" horiz-adv-x="760" 
d="M336 799q0 -23 9.5 -40.5t33.5 -17.5q23 0 34 17t11 40v2h76q0 -24 -9.5 -44t-25 -35t-36.5 -23t-45 -8t-46.5 6t-40 19.5t-27.5 34t-10 48.5v2h76v-1zM36 0q18 37 35 74t30 75.5t21 80t8 86.5q0 62 -8 108.5t-22 84.5t-33 71t-42 69h12.5h30.5t63 0.5t109 0.5h168h241
l71 -224q-31 27 -64.5 51.5t-68.5 44t-71 31t-72 11.5q-43 0 -74.5 -5t-51.5 -18t-29.5 -36t-9.5 -58q0 -38 16 -61.5t58 -23.5q27 0 50.5 10.5t43.5 26t35.5 34t26.5 34.5t17 27l6 11v-4v-13.5t-0.5 -33t-1 -63.5t-1 -104.5t-1.5 -155.5q-16 19 -33 41.5t-38 42.5t-46 33.5
t-56 13.5q-34 0 -51 -20t-17 -54q0 -31 11.5 -52.5t31 -34.5t44.5 -18.5t53 -5.5q53 0 96 17t80.5 44.5t70.5 62.5t66 72q-20 -99 -31 -153.5t-17 -80.5t-8 -31.5t-3 -7.5h-645z" />
    <glyph glyph-name="ebreve" unicode="&#x115;" horiz-adv-x="760" 
d="M336 799q0 -23 9.5 -40.5t33.5 -17.5q23 0 34 17t11 40v2h76q0 -24 -9.5 -44t-25 -35t-36.5 -23t-45 -8t-46.5 6t-40 19.5t-27.5 34t-10 48.5v2h76v-1zM36 0q18 37 35 74t30 75.5t21 80t8 86.5q0 62 -8 108.5t-22 84.5t-33 71t-42 69h12.5h30.5t63 0.5t109 0.5h168h241
l71 -224q-31 27 -64.5 51.5t-68.5 44t-71 31t-72 11.5q-43 0 -74.5 -5t-51.5 -18t-29.5 -36t-9.5 -58q0 -38 16 -61.5t58 -23.5q27 0 50.5 10.5t43.5 26t35.5 34t26.5 34.5t17 27l6 11v-4v-13.5t-0.5 -33t-1 -63.5t-1 -104.5t-1.5 -155.5q-16 19 -33 41.5t-38 42.5t-46 33.5
t-56 13.5q-34 0 -51 -20t-17 -54q0 -31 11.5 -52.5t31 -34.5t44.5 -18.5t53 -5.5q53 0 96 17t80.5 44.5t70.5 62.5t66 72q-20 -99 -31 -153.5t-17 -80.5t-8 -31.5t-3 -7.5h-645z" />
    <glyph glyph-name="Edotaccent" unicode="&#x116;" horiz-adv-x="760" 
d="M322 750q0 27 17 42.5t43 15.5q24 0 40 -16t16 -40t-16 -41t-40 -17q-26 0 -43 16t-17 40zM36 0q18 37 35 74t30 75.5t21 80t8 86.5q0 62 -8 108.5t-22 84.5t-33 71t-42 69h12.5h30.5t63 0.5t109 0.5h168h241l71 -224q-31 27 -64.5 51.5t-68.5 44t-71 31t-72 11.5
q-43 0 -74.5 -5t-51.5 -18t-29.5 -36t-9.5 -58q0 -38 16 -61.5t58 -23.5q27 0 50.5 10.5t43.5 26t35.5 34t26.5 34.5t17 27l6 11v-4v-13.5t-0.5 -33t-1 -63.5t-1 -104.5t-1.5 -155.5q-16 19 -33 41.5t-38 42.5t-46 33.5t-56 13.5q-34 0 -51 -20t-17 -54q0 -31 11.5 -52.5
t31 -34.5t44.5 -18.5t53 -5.5q53 0 96 17t80.5 44.5t70.5 62.5t66 72q-20 -99 -31 -153.5t-17 -80.5t-8 -31.5t-3 -7.5h-645z" />
    <glyph glyph-name="edotaccent" unicode="&#x117;" horiz-adv-x="760" 
d="M322 750q0 27 17 42.5t43 15.5q24 0 40 -16t16 -40t-16 -41t-40 -17q-26 0 -43 16t-17 40zM36 0q18 37 35 74t30 75.5t21 80t8 86.5q0 62 -8 108.5t-22 84.5t-33 71t-42 69h12.5h30.5t63 0.5t109 0.5h168h241l71 -224q-31 27 -64.5 51.5t-68.5 44t-71 31t-72 11.5
q-43 0 -74.5 -5t-51.5 -18t-29.5 -36t-9.5 -58q0 -38 16 -61.5t58 -23.5q27 0 50.5 10.5t43.5 26t35.5 34t26.5 34.5t17 27l6 11v-4v-13.5t-0.5 -33t-1 -63.5t-1 -104.5t-1.5 -155.5q-16 19 -33 41.5t-38 42.5t-46 33.5t-56 13.5q-34 0 -51 -20t-17 -54q0 -31 11.5 -52.5
t31 -34.5t44.5 -18.5t53 -5.5q53 0 96 17t80.5 44.5t70.5 62.5t66 72q-20 -99 -31 -153.5t-17 -80.5t-8 -31.5t-3 -7.5h-645z" />
    <glyph glyph-name="Eogonek" unicode="&#x118;" horiz-adv-x="760" 
d="M780 -32q12 -26 19.5 -40.5t14.5 -24.5t15 -19.5t21 -25.5q-30 0 -48 -16t-39 -35.5t-53.5 -35.5t-91.5 -16q-15 0 -31.5 4.5t-31 14.5t-24 27t-9.5 42q0 35 21 76.5t49 80.5h-556q18 37 35 74t30 75.5t21 80t8 86.5q0 62 -8 108.5t-22 84.5t-33 71t-42 69h12.5h30.5
t63 0.5t109 0.5h168h241l71 -224q-31 27 -64.5 51.5t-68.5 44t-71 31t-72 11.5q-43 0 -74.5 -5t-51.5 -18t-29.5 -36t-9.5 -58q0 -38 16 -61.5t58 -23.5q38 0 70.5 21t56 47t37.5 48.5t15 25.5v-4v-14.5t-0.5 -34.5t-1 -64t-1 -103.5t-1.5 -152.5q-16 19 -33 41.5t-38 42.5
t-46 33.5t-56 13.5q-34 0 -51 -20t-17 -54q0 -31 11.5 -52.5t31 -34.5t44.5 -18.5t53 -5.5q53 0 96 17t80.5 44.5t70.5 62.5t66 72q-15 -58 -34.5 -114t-37.5 -105t-30 -90t-12 -71q0 -32 13.5 -46.5t33.5 -14.5q29 0 49 13t33 33t19 44t6 46z" />
    <glyph glyph-name="eogonek" unicode="&#x119;" horiz-adv-x="760" 
d="M780 -32q12 -26 19.5 -40.5t14.5 -24.5t15 -19.5t21 -25.5q-30 0 -48 -16t-39 -35.5t-53.5 -35.5t-91.5 -16q-15 0 -31.5 4.5t-31 14.5t-24 27t-9.5 42q0 35 21 76.5t49 80.5h-556q18 37 35 74t30 75.5t21 80t8 86.5q0 62 -8 108.5t-22 84.5t-33 71t-42 69h12.5h30.5
t63 0.5t109 0.5h168h241l71 -224q-31 27 -64.5 51.5t-68.5 44t-71 31t-72 11.5q-43 0 -74.5 -5t-51.5 -18t-29.5 -36t-9.5 -58q0 -38 16 -61.5t58 -23.5q38 0 70.5 21t56 47t37.5 48.5t15 25.5v-4v-14.5t-0.5 -34.5t-1 -64t-1 -103.5t-1.5 -152.5q-16 19 -33 41.5t-38 42.5
t-46 33.5t-56 13.5q-34 0 -51 -20t-17 -54q0 -31 11.5 -52.5t31 -34.5t44.5 -18.5t53 -5.5q53 0 96 17t80.5 44.5t70.5 62.5t66 72q-15 -58 -34.5 -114t-37.5 -105t-30 -90t-12 -71q0 -32 13.5 -46.5t33.5 -14.5q29 0 49 13t33 33t19 44t6 46z" />
    <glyph glyph-name="Ecaron" unicode="&#x11a;" horiz-adv-x="760" 
d="M520 884q-22 -17 -38 -38t-26.5 -43t-15.5 -42.5t-5 -37.5q0 -7 3 -15l3 -9h-120q0 9 1 15t1 9q0 48 -23.5 86t-59.5 75h142q-17 -11 -20.5 -19t-3.5 -16q0 -3 3 -15.5t7.5 -27t10 -25.5t11.5 -11q4 0 8 10.5t7.5 23t6 24t2.5 14.5q0 12 -3 23t-14 19h123zM36 0
q18 37 35 74t30 75.5t21 80t8 86.5q0 62 -8 108.5t-22 84.5t-33 71t-42 69h12.5h30.5t63 0.5t109 0.5h168h241l71 -224q-31 27 -64.5 51.5t-68.5 44t-71 31t-72 11.5q-43 0 -74.5 -5t-51.5 -18t-29.5 -36t-9.5 -58q0 -38 16 -61.5t58 -23.5q27 0 50.5 10.5t43.5 26t35.5 34
t26.5 34.5t17 27l6 11v-4v-13.5t-0.5 -33t-1 -63.5t-1 -104.5t-1.5 -155.5q-16 19 -33 41.5t-38 42.5t-46 33.5t-56 13.5q-34 0 -51 -20t-17 -54q0 -31 11.5 -52.5t31 -34.5t44.5 -18.5t53 -5.5q53 0 96 17t80.5 44.5t70.5 62.5t66 72q-20 -99 -31 -153.5t-17 -80.5
t-8 -31.5t-3 -7.5h-645z" />
    <glyph glyph-name="ecaron" unicode="&#x11b;" horiz-adv-x="760" 
d="M520 884q-22 -17 -38 -38t-26.5 -43t-15.5 -42.5t-5 -37.5q0 -7 3 -15l3 -9h-120q0 9 1 15t1 9q0 48 -23.5 86t-59.5 75h142q-17 -11 -20.5 -19t-3.5 -16q0 -3 3 -15.5t7.5 -27t10 -25.5t11.5 -11q4 0 8 10.5t7.5 23t6 24t2.5 14.5q0 12 -3 23t-14 19h123zM36 0
q18 37 35 74t30 75.5t21 80t8 86.5q0 62 -8 108.5t-22 84.5t-33 71t-42 69h12.5h30.5t63 0.5t109 0.5h168h241l71 -224q-31 27 -64.5 51.5t-68.5 44t-71 31t-72 11.5q-43 0 -74.5 -5t-51.5 -18t-29.5 -36t-9.5 -58q0 -38 16 -61.5t58 -23.5q27 0 50.5 10.5t43.5 26t35.5 34
t26.5 34.5t17 27l6 11v-4v-13.5t-0.5 -33t-1 -63.5t-1 -104.5t-1.5 -155.5q-16 19 -33 41.5t-38 42.5t-46 33.5t-56 13.5q-34 0 -51 -20t-17 -54q0 -31 11.5 -52.5t31 -34.5t44.5 -18.5t53 -5.5q53 0 96 17t80.5 44.5t70.5 62.5t66 72q-20 -99 -31 -153.5t-17 -80.5
t-8 -31.5t-3 -7.5h-645z" />
    <glyph glyph-name="Gcircumflex" unicode="&#x11c;" horiz-adv-x="782" 
d="M301 700q22 17 38 38t26.5 43t15.5 43t5 37q0 8 -3 15l-3 9h120q0 -9 -1 -15t-1 -9q0 -48 23.5 -86t59.5 -75h-142q17 11 20.5 19t3.5 16q0 3 -2.5 15.5t-7 27t-10.5 25.5t-12 11q-4 0 -8 -10.5t-7.5 -23t-6 -24t-2.5 -14.5q0 -12 3 -23t14 -19h-123zM717 352
q-21 36 -47 76.5t-58.5 75t-72.5 57t-90 22.5q-55 0 -93.5 -24t-62 -62.5t-34 -86.5t-10.5 -95q0 -50 10.5 -94t33.5 -77t60 -52t90 -19q51 0 75.5 22.5t24.5 71.5q0 42 -24 73t-61 48h33t58.5 0.5t71 0.5t70.5 0.5t56.5 0.5h28.5q0 -1 -5 -10.5t-11.5 -21.5t-12.5 -24
t-8 -18q-17 -46 -24 -92t-7 -94q0 -34 3 -68q-23 13 -47 26.5t-53 13.5q-32 0 -53 -4t-41 -9t-43 -9t-59 -4q-73 0 -139.5 26t-116.5 72t-79.5 110t-29.5 140q0 77 30.5 141t84.5 110.5t127 72.5t157 26q40 0 71.5 -7t67.5 -7q20 0 36 6t28 12.5t19.5 12.5t9.5 6
q5 0 7.5 -16t6 -55.5t8.5 -106t14 -167.5z" />
    <glyph glyph-name="gcircumflex" unicode="&#x11d;" horiz-adv-x="782" 
d="M301 700q22 17 38 38t26.5 43t15.5 43t5 37q0 8 -3 15l-3 9h120q0 -9 -1 -15t-1 -9q0 -48 23.5 -86t59.5 -75h-142q17 11 20.5 19t3.5 16q0 3 -2.5 15.5t-7 27t-10.5 25.5t-12 11q-4 0 -8 -10.5t-7.5 -23t-6 -24t-2.5 -14.5q0 -12 3 -23t14 -19h-123zM717 352
q-21 36 -47 76.5t-58.5 75t-72.5 57t-90 22.5q-55 0 -93.5 -24t-62 -62.5t-34 -86.5t-10.5 -95q0 -50 10.5 -94t33.5 -77t60 -52t90 -19q51 0 75.5 22.5t24.5 71.5q0 42 -24 73t-61 48h33t58.5 0.5t71 0.5t70.5 0.5t56.5 0.5h28.5q0 -1 -5 -10.5t-11.5 -21.5t-12.5 -24
t-8 -18q-17 -46 -24 -92t-7 -94q0 -34 3 -68q-23 13 -47 26.5t-53 13.5q-32 0 -53 -4t-41 -9t-43 -9t-59 -4q-73 0 -139.5 26t-116.5 72t-79.5 110t-29.5 140q0 77 30.5 141t84.5 110.5t127 72.5t157 26q40 0 71.5 -7t67.5 -7q20 0 36 6t28 12.5t19.5 12.5t9.5 6
q5 0 7.5 -16t6 -55.5t8.5 -106t14 -167.5z" />
    <glyph glyph-name="Gbreve" unicode="&#x11e;" horiz-adv-x="782" 
d="M392 820q0 -23 9.5 -40.5t33.5 -17.5q23 0 34 17t11 40v2h76q0 -24 -9.5 -44t-25 -35t-36.5 -23t-45 -8t-46.5 6t-40 19.5t-27.5 34t-10 48.5v2h76v-1zM717 352q-21 36 -47 76.5t-58.5 75t-72.5 57t-90 22.5q-55 0 -93.5 -24t-62 -62.5t-34 -86.5t-10.5 -95
q0 -50 10.5 -94t33.5 -77t60 -52t90 -19q51 0 75.5 22.5t24.5 71.5q0 42 -24 73t-61 48h33t58.5 0.5t71 0.5t70.5 0.5t56.5 0.5h28.5q0 -1 -5 -10.5t-11.5 -21.5t-12.5 -24t-8 -18q-17 -46 -24 -92t-7 -94q0 -34 3 -68q-23 13 -47 26.5t-53 13.5q-32 0 -53 -4t-41 -9t-43 -9
t-59 -4q-73 0 -139.5 26t-116.5 72t-79.5 110t-29.5 140q0 77 30.5 141t84.5 110.5t127 72.5t157 26q40 0 71.5 -7t67.5 -7q20 0 36 6t28 12.5t19.5 12.5t9.5 6q5 0 7.5 -16t6 -55.5t8.5 -106t14 -167.5z" />
    <glyph glyph-name="gbreve" unicode="&#x11f;" horiz-adv-x="782" 
d="M392 820q0 -23 9.5 -40.5t33.5 -17.5q23 0 34 17t11 40v2h76q0 -24 -9.5 -44t-25 -35t-36.5 -23t-45 -8t-46.5 6t-40 19.5t-27.5 34t-10 48.5v2h76v-1zM717 352q-21 36 -47 76.5t-58.5 75t-72.5 57t-90 22.5q-55 0 -93.5 -24t-62 -62.5t-34 -86.5t-10.5 -95
q0 -50 10.5 -94t33.5 -77t60 -52t90 -19q51 0 75.5 22.5t24.5 71.5q0 42 -24 73t-61 48h33t58.5 0.5t71 0.5t70.5 0.5t56.5 0.5h28.5q0 -1 -5 -10.5t-11.5 -21.5t-12.5 -24t-8 -18q-17 -46 -24 -92t-7 -94q0 -34 3 -68q-23 13 -47 26.5t-53 13.5q-32 0 -53 -4t-41 -9t-43 -9
t-59 -4q-73 0 -139.5 26t-116.5 72t-79.5 110t-29.5 140q0 77 30.5 141t84.5 110.5t127 72.5t157 26q40 0 71.5 -7t67.5 -7q20 0 36 6t28 12.5t19.5 12.5t9.5 6q5 0 7.5 -16t6 -55.5t8.5 -106t14 -167.5z" />
    <glyph glyph-name="Gdotaccent" unicode="&#x120;" horiz-adv-x="782" 
d="M333 750q0 27 17 42.5t43 15.5q24 0 40 -16t16 -40t-16 -41t-40 -17q-26 0 -43 16t-17 40zM717 352q-21 36 -47 76.5t-58.5 75t-72.5 57t-90 22.5q-55 0 -93.5 -24t-62 -62.5t-34 -86.5t-10.5 -95q0 -50 10.5 -94t33.5 -77t60 -52t90 -19q51 0 75.5 22.5t24.5 71.5
q0 42 -24 73t-61 48h33t58.5 0.5t71 0.5t70.5 0.5t56.5 0.5h28.5q0 -1 -5 -10.5t-11.5 -21.5t-12.5 -24t-8 -18q-17 -46 -24 -92t-7 -94q0 -34 3 -68q-23 13 -47 26.5t-53 13.5q-32 0 -53 -4t-41 -9t-43 -9t-59 -4q-73 0 -139.5 26t-116.5 72t-79.5 110t-29.5 140
q0 77 30.5 141t84.5 110.5t127 72.5t157 26q40 0 71.5 -7t67.5 -7q20 0 36 6t28 12.5t19.5 12.5t9.5 6q5 0 7.5 -16t6 -55.5t8.5 -106t14 -167.5z" />
    <glyph glyph-name="gdotaccent" unicode="&#x121;" horiz-adv-x="782" 
d="M333 750q0 27 17 42.5t43 15.5q24 0 40 -16t16 -40t-16 -41t-40 -17q-26 0 -43 16t-17 40zM717 352q-21 36 -47 76.5t-58.5 75t-72.5 57t-90 22.5q-55 0 -93.5 -24t-62 -62.5t-34 -86.5t-10.5 -95q0 -50 10.5 -94t33.5 -77t60 -52t90 -19q51 0 75.5 22.5t24.5 71.5
q0 42 -24 73t-61 48h33t58.5 0.5t71 0.5t70.5 0.5t56.5 0.5h28.5q0 -1 -5 -10.5t-11.5 -21.5t-12.5 -24t-8 -18q-17 -46 -24 -92t-7 -94q0 -34 3 -68q-23 13 -47 26.5t-53 13.5q-32 0 -53 -4t-41 -9t-43 -9t-59 -4q-73 0 -139.5 26t-116.5 72t-79.5 110t-29.5 140
q0 77 30.5 141t84.5 110.5t127 72.5t157 26q40 0 71.5 -7t67.5 -7q20 0 36 6t28 12.5t19.5 12.5t9.5 6q5 0 7.5 -16t6 -55.5t8.5 -106t14 -167.5z" />
    <glyph glyph-name="Gcommaaccent" unicode="&#x122;" horiz-adv-x="782" 
d="M333 -116q0 26 20 40t44 14q23 0 38.5 -19t15.5 -42q0 -18 -7 -39t-17.5 -38t-24 -28.5t-25.5 -11.5q-5 0 -10.5 2t-5.5 10q0 4 3.5 7.5l8.5 8.5q9 10 15 18t8 18h-3q-27 0 -43.5 16.5t-16.5 43.5zM717 352q-21 36 -47 76.5t-58.5 75t-72.5 57t-90 22.5q-55 0 -93.5 -24
t-62 -62.5t-34 -86.5t-10.5 -95q0 -50 10.5 -94t33.5 -77t60 -52t90 -19q51 0 75.5 22.5t24.5 71.5q0 42 -24 73t-61 48h33t58.5 0.5t71 0.5t70.5 0.5t56.5 0.5h28.5q0 -1 -5 -10.5t-11.5 -21.5t-12.5 -24t-8 -18q-17 -46 -24 -92t-7 -94q0 -34 3 -68q-23 13 -47 26.5
t-53 13.5q-32 0 -53 -4t-41 -9t-43 -9t-59 -4q-73 0 -139.5 26t-116.5 72t-79.5 110t-29.5 140q0 77 30.5 141t84.5 110.5t127 72.5t157 26q40 0 71.5 -7t67.5 -7q20 0 36 6t28 12.5t19.5 12.5t9.5 6q5 0 7.5 -16t6 -55.5t8.5 -106t14 -167.5z" />
    <glyph glyph-name="gcommaaccent" unicode="&#x123;" horiz-adv-x="782" 
d="M333 -116q0 26 20 40t44 14q23 0 38.5 -19t15.5 -42q0 -18 -7 -39t-17.5 -38t-24 -28.5t-25.5 -11.5q-5 0 -10.5 2t-5.5 10q0 4 3.5 7.5l8.5 8.5q9 10 15 18t8 18h-3q-27 0 -43.5 16.5t-16.5 43.5zM717 352q-21 36 -47 76.5t-58.5 75t-72.5 57t-90 22.5q-55 0 -93.5 -24
t-62 -62.5t-34 -86.5t-10.5 -95q0 -50 10.5 -94t33.5 -77t60 -52t90 -19q51 0 75.5 22.5t24.5 71.5q0 42 -24 73t-61 48h33t58.5 0.5t71 0.5t70.5 0.5t56.5 0.5h28.5q0 -1 -5 -10.5t-11.5 -21.5t-12.5 -24t-8 -18q-17 -46 -24 -92t-7 -94q0 -34 3 -68q-23 13 -47 26.5
t-53 13.5q-32 0 -53 -4t-41 -9t-43 -9t-59 -4q-73 0 -139.5 26t-116.5 72t-79.5 110t-29.5 140q0 77 30.5 141t84.5 110.5t127 72.5t157 26q40 0 71.5 -7t67.5 -7q20 0 36 6t28 12.5t19.5 12.5t9.5 6q5 0 7.5 -16t6 -55.5t8.5 -106t14 -167.5z" />
    <glyph glyph-name="Hcircumflex" unicode="&#x124;" horiz-adv-x="877" 
d="M298 700q22 17 38 38t26.5 43t15.5 43t5 37q0 8 -3 15l-3 9h120q0 -9 -1 -15t-1 -9q0 -48 23.5 -86t59.5 -75h-142q17 11 20.5 19t3.5 16q0 3 -2.5 15.5t-7 27t-10.5 25.5t-12 11q-4 0 -8 -10.5t-7.5 -23t-6 -24t-2.5 -14.5q0 -12 3 -23t14 -19h-123zM485 0
q20 22 38.5 47t33 52t23 55t8.5 55q0 29 -15.5 45.5t-36.5 24.5t-43 10t-36 2h-35q-27 0 -49.5 -2t-38.5 -9.5t-25 -21.5t-9 -38q0 -66 24 -118.5t69 -101.5h-357q28 45 48.5 85t34.5 79.5t21 80t7 85.5q0 66 -7 113t-22 82.5t-38 64.5t-55 60h379q-17 -22 -35 -46.5
t-32.5 -50t-24 -52t-9.5 -53.5q0 -22 10.5 -35t27 -19.5t37 -8.5t39.5 -2h43q20 0 44 1.5t44.5 9t34.5 23t14 43.5q0 57 -28 105t-73 85h356q-22 -33 -41.5 -72.5t-34.5 -82.5t-23.5 -86.5t-8.5 -82.5q0 -48 6 -90t19 -81t32.5 -77t46.5 -78h-363z" />
    <glyph glyph-name="hcircumflex" unicode="&#x125;" horiz-adv-x="877" 
d="M298 700q22 17 38 38t26.5 43t15.5 43t5 37q0 8 -3 15l-3 9h120q0 -9 -1 -15t-1 -9q0 -48 23.5 -86t59.5 -75h-142q17 11 20.5 19t3.5 16q0 3 -2.5 15.5t-7 27t-10.5 25.5t-12 11q-4 0 -8 -10.5t-7.5 -23t-6 -24t-2.5 -14.5q0 -12 3 -23t14 -19h-123zM485 0
q20 22 38.5 47t33 52t23 55t8.5 55q0 29 -15.5 45.5t-36.5 24.5t-43 10t-36 2h-35q-27 0 -49.5 -2t-38.5 -9.5t-25 -21.5t-9 -38q0 -66 24 -118.5t69 -101.5h-357q28 45 48.5 85t34.5 79.5t21 80t7 85.5q0 66 -7 113t-22 82.5t-38 64.5t-55 60h379q-17 -22 -35 -46.5
t-32.5 -50t-24 -52t-9.5 -53.5q0 -22 10.5 -35t27 -19.5t37 -8.5t39.5 -2h43q20 0 44 1.5t44.5 9t34.5 23t14 43.5q0 57 -28 105t-73 85h356q-22 -33 -41.5 -72.5t-34.5 -82.5t-23.5 -86.5t-8.5 -82.5q0 -48 6 -90t19 -81t32.5 -77t46.5 -78h-363z" />
    <glyph glyph-name="Hbar" unicode="&#x126;" horiz-adv-x="877" 
d="M460 383q20 0 44 1.5t44.5 9t34.5 23t14 43.5v4h-293q-1 -5 -1 -8.5v-7.5q0 -22 10.5 -35t27 -19.5t37 -8.5t39.5 -2h43zM848 464h-82q-11 -35 -16.5 -70.5t-5.5 -67.5q0 -48 6 -90t19 -81t32.5 -77t46.5 -78h-363q20 22 38.5 47t33 52t23 55t8.5 55q0 29 -15.5 45.5
t-36.5 24.5t-43 10t-36 2h-35q-27 0 -49.5 -2t-38.5 -9.5t-25 -21.5t-9 -38q0 -66 24 -118.5t69 -101.5h-357q28 45 48.5 85t34.5 79.5t21 80t7 85.5q0 42 -2.5 74t-8.5 60h-109v74h85q-15 31 -36.5 57t-50.5 55h379q-20 -26 -40.5 -54t-35.5 -58h254q-13 32 -35 60.5
t-51 51.5h356q-17 -25 -32 -53t-28 -59h56v-74z" />
    <glyph glyph-name="hbar" unicode="&#x127;" horiz-adv-x="877" 
d="M460 383q20 0 44 1.5t44.5 9t34.5 23t14 43.5v4h-293q-1 -5 -1 -8.5v-7.5q0 -22 10.5 -35t27 -19.5t37 -8.5t39.5 -2h43zM848 464h-82q-11 -35 -16.5 -70.5t-5.5 -67.5q0 -48 6 -90t19 -81t32.5 -77t46.5 -78h-363q20 22 38.5 47t33 52t23 55t8.5 55q0 29 -15.5 45.5
t-36.5 24.5t-43 10t-36 2h-35q-27 0 -49.5 -2t-38.5 -9.5t-25 -21.5t-9 -38q0 -66 24 -118.5t69 -101.5h-357q28 45 48.5 85t34.5 79.5t21 80t7 85.5q0 42 -2.5 74t-8.5 60h-109v74h85q-15 31 -36.5 57t-50.5 55h379q-20 -26 -40.5 -54t-35.5 -58h254q-13 32 -35 60.5
t-51 51.5h356q-17 -25 -32 -53t-28 -59h56v-74z" />
    <glyph glyph-name="Itilde" unicode="&#x128;" horiz-adv-x="425" 
d="M121 837q3 1 5.5 1.5t5.5 0.5q17 0 37 -9.5t40.5 -21t40.5 -21t36 -9.5t23.5 9.5t11.5 20.5t6.5 21t7.5 11q5 0 8.5 -9t6.5 -20t4.5 -22t1.5 -16q0 -39 -20.5 -61t-41.5 -22q-16 0 -35 9.5t-39 20.5t-40 20.5t-37 9.5t-25 -8t-12.5 -18.5t-7.5 -19.5t-10 -11q-4 0 -7.5 8
t-6 18.5t-4 21t-1.5 14.5q0 33 16.5 55t35.5 27zM400 650q-22 -33 -42 -68t-35 -72t-23.5 -75.5t-8.5 -78.5q0 -195 109 -356h-374q24 45 45 89.5t37 89.5t25.5 90t9.5 90q0 85 -27 156.5t-91 134.5h375z" />
    <glyph glyph-name="itilde" unicode="&#x129;" horiz-adv-x="425" 
d="M121 837q3 1 5.5 1.5t5.5 0.5q17 0 37 -9.5t40.5 -21t40.5 -21t36 -9.5t23.5 9.5t11.5 20.5t6.5 21t7.5 11q5 0 8.5 -9t6.5 -20t4.5 -22t1.5 -16q0 -39 -20.5 -61t-41.5 -22q-16 0 -35 9.5t-39 20.5t-40 20.5t-37 9.5t-25 -8t-12.5 -18.5t-7.5 -19.5t-10 -11q-4 0 -7.5 8
t-6 18.5t-4 21t-1.5 14.5q0 33 16.5 55t35.5 27zM400 650q-22 -33 -42 -68t-35 -72t-23.5 -75.5t-8.5 -78.5q0 -195 109 -356h-374q24 45 45 89.5t37 89.5t25.5 90t9.5 90q0 85 -27 156.5t-91 134.5h375z" />
    <glyph glyph-name="Imacron" unicode="&#x12a;" horiz-adv-x="425" 
d="M361 700h-297v84h297v-84zM400 650q-22 -33 -42 -68t-35 -72t-23.5 -75.5t-8.5 -78.5q0 -195 109 -356h-374q24 45 45 89.5t37 89.5t25.5 90t9.5 90q0 85 -27 156.5t-91 134.5h375z" />
    <glyph glyph-name="imacron" unicode="&#x12b;" horiz-adv-x="425" 
d="M361 700h-297v84h297v-84zM400 650q-22 -33 -42 -68t-35 -72t-23.5 -75.5t-8.5 -78.5q0 -195 109 -356h-374q24 45 45 89.5t37 89.5t25.5 90t9.5 90q0 85 -27 156.5t-91 134.5h375z" />
    <glyph glyph-name="Ibreve" unicode="&#x12c;" horiz-adv-x="425" 
d="M168 799q0 -23 9.5 -40.5t33.5 -17.5q23 0 34 17t11 40v2h76q0 -24 -9.5 -44t-25 -35t-36.5 -23t-45 -8t-46.5 6t-40 19.5t-27.5 34t-10 48.5v2h76v-1zM400 650q-22 -33 -42 -68t-35 -72t-23.5 -75.5t-8.5 -78.5q0 -195 109 -356h-374q24 45 45 89.5t37 89.5t25.5 90
t9.5 90q0 85 -27 156.5t-91 134.5h375z" />
    <glyph glyph-name="ibreve" unicode="&#x12d;" horiz-adv-x="425" 
d="M168 799q0 -23 9.5 -40.5t33.5 -17.5q23 0 34 17t11 40v2h76q0 -24 -9.5 -44t-25 -35t-36.5 -23t-45 -8t-46.5 6t-40 19.5t-27.5 34t-10 48.5v2h76v-1zM400 650q-22 -33 -42 -68t-35 -72t-23.5 -75.5t-8.5 -78.5q0 -195 109 -356h-374q24 45 45 89.5t37 89.5t25.5 90
t9.5 90q0 85 -27 156.5t-91 134.5h375z" />
    <glyph glyph-name="Iogonek" unicode="&#x12e;" horiz-adv-x="425" 
d="M443 -43q12 -26 19.5 -40.5t14.5 -24.5t15 -19.5t21 -25.5q-30 0 -48 -16t-39 -35.5t-53.5 -35.5t-91.5 -16q-15 0 -31.5 4.5t-31 14.5t-24 27t-9.5 42q0 37 24 81.5t55 86.5h-238q24 45 45 89.5t37 89.5t25.5 90t9.5 90q0 85 -27 156.5t-91 134.5h375q-22 -33 -42 -68
t-35 -72t-23.5 -75.5t-8.5 -78.5q0 -195 109 -356h-68q-18 -29 -30.5 -59t-12.5 -59q0 -32 13.5 -46.5t33.5 -14.5q29 0 49 13t33 33t19 44t6 46z" />
    <glyph glyph-name="iogonek" unicode="&#x12f;" horiz-adv-x="425" 
d="M443 -43q12 -26 19.5 -40.5t14.5 -24.5t15 -19.5t21 -25.5q-30 0 -48 -16t-39 -35.5t-53.5 -35.5t-91.5 -16q-15 0 -31.5 4.5t-31 14.5t-24 27t-9.5 42q0 37 24 81.5t55 86.5h-238q24 45 45 89.5t37 89.5t25.5 90t9.5 90q0 85 -27 156.5t-91 134.5h375q-22 -33 -42 -68
t-35 -72t-23.5 -75.5t-8.5 -78.5q0 -195 109 -356h-68q-18 -29 -30.5 -59t-12.5 -59q0 -32 13.5 -46.5t33.5 -14.5q29 0 49 13t33 33t19 44t6 46z" />
    <glyph glyph-name="Idotaccent" unicode="&#x130;" horiz-adv-x="425" 
d="M164 750q0 27 17 42.5t43 15.5q24 0 40 -16t16 -40t-16 -41t-40 -17q-26 0 -43 16t-17 40zM400 650q-22 -33 -42 -68t-35 -72t-23.5 -75.5t-8.5 -78.5q0 -195 109 -356h-374q24 45 45 89.5t37 89.5t25.5 90t9.5 90q0 85 -27 156.5t-91 134.5h375z" />
    <glyph glyph-name="dotlessi" unicode="&#x131;" horiz-adv-x="425" 
d="M400 650q-22 -33 -42 -68t-35 -72t-23.5 -75.5t-8.5 -78.5q0 -195 109 -356h-374q24 45 45 89.5t37 89.5t25.5 90t9.5 90q0 85 -27 156.5t-91 134.5h375z" />
    <glyph glyph-name="IJ" unicode="&#x132;" horiz-adv-x="1001" 
d="M996 650q-24 -31 -41 -56.5t-28.5 -52t-16.5 -55.5t-5 -67q0 -54 7 -108t7 -100q0 -49 -11.5 -94t-37 -79t-65.5 -54.5t-97 -20.5q-21 0 -47 6t-53 12.5t-53 12.5t-46 6q-16 0 -29 -5t-22.5 -11t-16 -11t-9.5 -5q-2 8 -3 20.5l-4 50t-9.5 110.5t-18.5 201
q38 -73 65 -123.5t50.5 -81.5t46.5 -45t53 -14q45 0 71 26t39.5 64t17 80.5t3.5 74.5q0 48 -6 90t-23.5 80t-48.5 75t-82 74h413zM400 650q-22 -33 -42 -68t-35 -72t-23.5 -75.5t-8.5 -78.5q0 -195 109 -356h-374q24 45 45 89.5t37 89.5t25.5 90t9.5 90q0 85 -27 156.5
t-91 134.5h375z" />
    <glyph glyph-name="ij" unicode="&#x133;" horiz-adv-x="1001" 
d="M996 650q-24 -31 -41 -56.5t-28.5 -52t-16.5 -55.5t-5 -67q0 -54 7 -108t7 -100q0 -49 -11.5 -94t-37 -79t-65.5 -54.5t-97 -20.5q-21 0 -47 6t-53 12.5t-53 12.5t-46 6q-16 0 -29 -5t-22.5 -11t-16 -11t-9.5 -5q-2 8 -3 20.5l-4 50t-9.5 110.5t-18.5 201
q38 -73 65 -123.5t50.5 -81.5t46.5 -45t53 -14q45 0 71 26t39.5 64t17 80.5t3.5 74.5q0 48 -6 90t-23.5 80t-48.5 75t-82 74h413zM400 650q-22 -33 -42 -68t-35 -72t-23.5 -75.5t-8.5 -78.5q0 -195 109 -356h-374q24 45 45 89.5t37 89.5t25.5 90t9.5 90q0 85 -27 156.5
t-91 134.5h375z" />
    <glyph glyph-name="Jcircumflex" unicode="&#x134;" horiz-adv-x="619" 
d="M279 700q22 17 38 38t26.5 43t15.5 43t5 37q0 8 -3 15l-3 9h120q0 -9 -1 -15t-1 -9q0 -48 23.5 -86t59.5 -75h-142q17 11 20.5 19t3.5 16q0 3 -2.5 15.5t-7 27t-10.5 25.5t-12 11q-4 0 -8 -10.5t-7.5 -23t-6 -24t-2.5 -14.5q0 -12 3 -23t14 -19h-123zM614 650
q-24 -31 -41 -56.5t-28.5 -52t-16.5 -55.5t-5 -67q0 -54 7 -108t7 -100q0 -49 -11.5 -94t-37 -79t-65.5 -54.5t-97 -20.5q-21 0 -47 6t-53 12.5t-53 12.5t-46 6q-16 0 -29 -5t-22.5 -11t-16 -11t-9.5 -5q-2 8 -3 20.5l-4 50t-9.5 110.5t-18.5 201q38 -73 65 -123.5
t50.5 -81.5t46.5 -45t53 -14q45 0 71 26t39.5 64t17 80.5t3.5 74.5q0 48 -6 90t-23.5 80t-48.5 75t-82 74h413z" />
    <glyph glyph-name="jcircumflex" unicode="&#x135;" horiz-adv-x="619" 
d="M279 700q22 17 38 38t26.5 43t15.5 43t5 37q0 8 -3 15l-3 9h120q0 -9 -1 -15t-1 -9q0 -48 23.5 -86t59.5 -75h-142q17 11 20.5 19t3.5 16q0 3 -2.5 15.5t-7 27t-10.5 25.5t-12 11q-4 0 -8 -10.5t-7.5 -23t-6 -24t-2.5 -14.5q0 -12 3 -23t14 -19h-123zM614 650
q-24 -31 -41 -56.5t-28.5 -52t-16.5 -55.5t-5 -67q0 -54 7 -108t7 -100q0 -49 -11.5 -94t-37 -79t-65.5 -54.5t-97 -20.5q-21 0 -47 6t-53 12.5t-53 12.5t-46 6q-16 0 -29 -5t-22.5 -11t-16 -11t-9.5 -5q-2 8 -3 20.5l-4 50t-9.5 110.5t-18.5 201q38 -73 65 -123.5
t50.5 -81.5t46.5 -45t53 -14q45 0 71 26t39.5 64t17 80.5t3.5 74.5q0 48 -6 90t-23.5 80t-48.5 75t-82 74h413z" />
    <glyph glyph-name="Kcommaaccent" unicode="&#x136;" horiz-adv-x="877" 
d="M459 -37q0 26 20 40t44 14q23 0 38.5 -19t15.5 -42q0 -18 -7 -39t-17.5 -38t-24 -28.5t-25.5 -11.5q-5 0 -10.5 2t-5.5 10q0 4 3.5 7.5l8.5 8.5q9 10 15 18t8 18h-3q-27 0 -43.5 16.5t-16.5 43.5zM613 0q-33 20 -45.5 53.5t-16.5 71.5t-4.5 77.5t-8.5 71t-30 51.5t-68 20
q-151 0 -151 -148q0 -35 11 -64t30.5 -53t46 -43.5t57.5 -35.5h-403q60 84 83.5 169.5t23.5 179.5q0 51 -4 93t-16 78.5t-34.5 68t-58.5 60.5q164 0 261.5 -0.5t108.5 -0.5q-27 -24 -46 -47.5t-31 -49t-17.5 -55t-5.5 -64.5q0 -5 2.5 -14t15.5 -9q6 0 24 11t38.5 25
t39.5 28.5t28 21.5q17 15 34 37t17 48q0 13 -7 24t-16 19.5t-17.5 15t-11.5 10.5h430q-45 -25 -78 -41.5t-59.5 -29t-50 -25t-51 -29.5t-61.5 -41.5t-81 -61.5q47 0 92.5 -8.5t80.5 -29t56.5 -56t21.5 -89.5v-12q0 -32 1.5 -63.5t9 -61t24 -55.5t46.5 -47h-210z" />
    <glyph glyph-name="kcommaaccent" unicode="&#x137;" horiz-adv-x="877" 
d="M459 -37q0 26 20 40t44 14q23 0 38.5 -19t15.5 -42q0 -18 -7 -39t-17.5 -38t-24 -28.5t-25.5 -11.5q-5 0 -10.5 2t-5.5 10q0 4 3.5 7.5l8.5 8.5q9 10 15 18t8 18h-3q-27 0 -43.5 16.5t-16.5 43.5zM613 0q-33 20 -45.5 53.5t-16.5 71.5t-4.5 77.5t-8.5 71t-30 51.5t-68 20
q-151 0 -151 -148q0 -35 11 -64t30.5 -53t46 -43.5t57.5 -35.5h-403q60 84 83.5 169.5t23.5 179.5q0 51 -4 93t-16 78.5t-34.5 68t-58.5 60.5q164 0 261.5 -0.5t108.5 -0.5q-27 -24 -46 -47.5t-31 -49t-17.5 -55t-5.5 -64.5q0 -5 2.5 -14t15.5 -9q6 0 24 11t38.5 25
t39.5 28.5t28 21.5q17 15 34 37t17 48q0 13 -7 24t-16 19.5t-17.5 15t-11.5 10.5h430q-45 -25 -78 -41.5t-59.5 -29t-50 -25t-51 -29.5t-61.5 -41.5t-81 -61.5q47 0 92.5 -8.5t80.5 -29t56.5 -56t21.5 -89.5v-12q0 -32 1.5 -63.5t9 -61t24 -55.5t46.5 -47h-210z" />
    <glyph glyph-name="kgreenlandic" unicode="&#x138;" horiz-adv-x="873" 
d="M823 650q-30 -21 -46.5 -37.5t-24 -34.5t-9 -40.5t-1.5 -54.5v-12q0 -54 -21.5 -89.5t-56.5 -56t-80.5 -29t-92.5 -8.5q53 -52 94 -89t82 -68.5t89 -62t116 -68.5h-430q3 4 11.5 10.5t17.5 15t16 19.5t7 24q0 22 -11.5 48t-29 51.5t-38.5 49.5t-41 42t-36.5 29t-24.5 11
q-13 0 -15.5 -9t-2.5 -14q0 -36 5.5 -74.5t17.5 -75t31 -69.5t46 -57q-11 0 -108.5 -0.5t-261.5 -0.5q36 29 58.5 60.5t34.5 68t16 78.5t4 93q0 94 -23.5 180t-83.5 170h403q-31 -16 -57.5 -33t-46 -37.5t-30.5 -46.5t-11 -60q0 -44 37.5 -76t113.5 -32q46 0 68 15.5
t30 40.5t8.5 56.5t4.5 63t16.5 60.5t45.5 49h210z" />
    <glyph glyph-name="Lacute" unicode="&#x139;" horiz-adv-x="695" 
d="M399 872l-135 -172h-66l75 172h126zM666 0h-259h-175.5h-107.5t-56.5 0.5t-22 1l-3.5 0.5q45 75 74 159.5t29 172.5q0 42 -6.5 85.5t-20.5 84.5t-37 78t-56 67h4h16.5t40.5 0.5t76 0.5h124h183q-44 -29 -77.5 -68t-56 -85t-34 -96.5t-11.5 -103.5q0 -39 8.5 -76
t27.5 -65.5t49 -46t72 -17.5q55 0 90.5 24t60.5 60t43.5 78.5t38.5 79.5z" />
    <glyph glyph-name="lacute" unicode="&#x13a;" horiz-adv-x="695" 
d="M399 872l-135 -172h-66l75 172h126zM666 0h-259h-175.5h-107.5t-56.5 0.5t-22 1l-3.5 0.5q45 75 74 159.5t29 172.5q0 42 -6.5 85.5t-20.5 84.5t-37 78t-56 67h4h16.5t40.5 0.5t76 0.5h124h183q-44 -29 -77.5 -68t-56 -85t-34 -96.5t-11.5 -103.5q0 -39 8.5 -76
t27.5 -65.5t49 -46t72 -17.5q55 0 90.5 24t60.5 60t43.5 78.5t38.5 79.5z" />
    <glyph glyph-name="Lcommaaccent" unicode="&#x13b;" horiz-adv-x="695" 
d="M322 -93q0 26 20 40t44 14q23 0 38.5 -19t15.5 -42q0 -18 -7 -39t-17.5 -38t-24 -28.5t-25.5 -11.5q-5 0 -10.5 2t-5.5 10q0 4 3.5 7.5l8.5 8.5q9 10 15 18t8 18h-3q-27 0 -43.5 16.5t-16.5 43.5zM666 0h-259h-175.5h-107.5t-56.5 0.5t-22 1l-3.5 0.5q45 75 74 159.5
t29 172.5q0 42 -6.5 85.5t-20.5 84.5t-37 78t-56 67h4h16.5t40.5 0.5t76 0.5h124h183q-44 -29 -77.5 -68t-56 -85t-34 -96.5t-11.5 -103.5q0 -39 8.5 -76t27.5 -65.5t49 -46t72 -17.5q55 0 90.5 24t60.5 60t43.5 78.5t38.5 79.5z" />
    <glyph glyph-name="lcommaaccent" unicode="&#x13c;" horiz-adv-x="695" 
d="M322 -93q0 26 20 40t44 14q23 0 38.5 -19t15.5 -42q0 -18 -7 -39t-17.5 -38t-24 -28.5t-25.5 -11.5q-5 0 -10.5 2t-5.5 10q0 4 3.5 7.5l8.5 8.5q9 10 15 18t8 18h-3q-27 0 -43.5 16.5t-16.5 43.5zM666 0h-259h-175.5h-107.5t-56.5 0.5t-22 1l-3.5 0.5q45 75 74 159.5
t29 172.5q0 42 -6.5 85.5t-20.5 84.5t-37 78t-56 67h4h16.5t40.5 0.5t76 0.5h124h183q-44 -29 -77.5 -68t-56 -85t-34 -96.5t-11.5 -103.5q0 -39 8.5 -76t27.5 -65.5t49 -46t72 -17.5q55 0 90.5 24t60.5 60t43.5 78.5t38.5 79.5z" />
    <glyph glyph-name="Lcaron" unicode="&#x13d;" horiz-adv-x="695" 
d="M526 552q0 26 20 40t44 14q23 0 38.5 -19t15.5 -42q0 -18 -7 -39t-17.5 -38t-24 -28.5t-25.5 -11.5q-5 0 -10.5 2t-5.5 10q0 4 3.5 7.5l8.5 8.5q9 10 15 18t8 18h-3q-27 0 -43.5 16.5t-16.5 43.5zM666 0h-259h-175.5h-107.5t-56.5 0.5t-22 1l-3.5 0.5q45 75 74 159.5
t29 172.5q0 42 -6.5 85.5t-20.5 84.5t-37 78t-56 67h4h16.5t40.5 0.5t76 0.5h124h183q-44 -29 -77.5 -68t-56 -85t-34 -96.5t-11.5 -103.5q0 -39 8.5 -76t27.5 -65.5t49 -46t72 -17.5q55 0 90.5 24t60.5 60t43.5 78.5t38.5 79.5z" />
    <glyph glyph-name="lcaron" unicode="&#x13e;" horiz-adv-x="695" 
d="M526 552q0 26 20 40t44 14q23 0 38.5 -19t15.5 -42q0 -18 -7 -39t-17.5 -38t-24 -28.5t-25.5 -11.5q-5 0 -10.5 2t-5.5 10q0 4 3.5 7.5l8.5 8.5q9 10 15 18t8 18h-3q-27 0 -43.5 16.5t-16.5 43.5zM666 0h-259h-175.5h-107.5t-56.5 0.5t-22 1l-3.5 0.5q45 75 74 159.5
t29 172.5q0 42 -6.5 85.5t-20.5 84.5t-37 78t-56 67h4h16.5t40.5 0.5t76 0.5h124h183q-44 -29 -77.5 -68t-56 -85t-34 -96.5t-11.5 -103.5q0 -39 8.5 -76t27.5 -65.5t49 -46t72 -17.5q55 0 90.5 24t60.5 60t43.5 78.5t38.5 79.5z" />
    <glyph glyph-name="Ldot" unicode="&#x13f;" horiz-adv-x="695" 
d="M503 503q0 27 17 42.5t43 15.5q24 0 40 -16t16 -40t-16 -41t-40 -17q-26 0 -43 16t-17 40zM666 0h-259h-175.5h-107.5t-56.5 0.5t-22 1l-3.5 0.5q45 75 74 159.5t29 172.5q0 42 -6.5 85.5t-20.5 84.5t-37 78t-56 67h4h16.5t40.5 0.5t76 0.5h124h183q-44 -29 -77.5 -68
t-56 -85t-34 -96.5t-11.5 -103.5q0 -39 8.5 -76t27.5 -65.5t49 -46t72 -17.5q55 0 90.5 24t60.5 60t43.5 78.5t38.5 79.5z" />
    <glyph glyph-name="ldot" unicode="&#x140;" horiz-adv-x="695" 
d="M503 503q0 27 17 42.5t43 15.5q24 0 40 -16t16 -40t-16 -41t-40 -17q-26 0 -43 16t-17 40zM666 0h-259h-175.5h-107.5t-56.5 0.5t-22 1l-3.5 0.5q45 75 74 159.5t29 172.5q0 42 -6.5 85.5t-20.5 84.5t-37 78t-56 67h4h16.5t40.5 0.5t76 0.5h124h183q-44 -29 -77.5 -68
t-56 -85t-34 -96.5t-11.5 -103.5q0 -39 8.5 -76t27.5 -65.5t49 -46t72 -17.5q55 0 90.5 24t60.5 60t43.5 78.5t38.5 79.5z" />
    <glyph glyph-name="Lslash" unicode="&#x141;" horiz-adv-x="695" 
d="M469 650q-60 -40 -100.5 -97t-60.5 -126l92 48v-129l-110 -57q1 -38 10.5 -73.5t28 -63t48 -44t70.5 -16.5q55 0 90.5 24t60.5 60t43.5 78.5t38.5 79.5l-14 -334h-259h-175.5h-107.5t-56.5 0.5t-22 1l-3.5 0.5q27 46 49.5 97t36.5 105l-97 -51v129l114 60q-1 42 -8 84
t-21 82t-36.5 76t-54.5 65h4h16.5t40.5 0.5t76 0.5h124h183z" />
    <glyph glyph-name="lslash" unicode="&#x142;" horiz-adv-x="695" 
d="M469 650q-60 -40 -100.5 -97t-60.5 -126l92 48v-129l-110 -57q1 -38 10.5 -73.5t28 -63t48 -44t70.5 -16.5q55 0 90.5 24t60.5 60t43.5 78.5t38.5 79.5l-14 -334h-259h-175.5h-107.5t-56.5 0.5t-22 1l-3.5 0.5q27 46 49.5 97t36.5 105l-97 -51v129l114 60q-1 42 -8 84
t-21 82t-36.5 76t-54.5 65h4h16.5t40.5 0.5t76 0.5h124h183z" />
    <glyph glyph-name="Nacute" unicode="&#x143;" horiz-adv-x="853" 
d="M614 870l-135 -172h-66l75 172h126zM728 -66q-26 23 -41.5 38t-29.5 30.5t-32 35.5t-51 54.5t-85 87t-134 132.5q-6 6 -15.5 15t-20.5 17t-22 13.5t-22 5.5q-14 0 -21.5 -11t-11 -26t-4 -30t-0.5 -24q0 -38 10 -74.5t26.5 -70.5t38 -65.5t45.5 -61.5h-333
q26 37 44.5 71.5t30.5 73t18 84.5t6 106q0 82 -21 164.5t-77 150.5h320q0 -39 17 -80t43.5 -80t58.5 -73.5t61 -60t51.5 -40.5t30.5 -15q11 0 14 22t3 52q0 81 -28.5 147.5t-88.5 127.5h340q-31 -42 -53.5 -87t-37.5 -91.5t-22 -92.5t-7 -88v-357z" />
    <glyph glyph-name="nacute" unicode="&#x144;" horiz-adv-x="853" 
d="M614 870l-135 -172h-66l75 172h126zM728 -66q-26 23 -41.5 38t-29.5 30.5t-32 35.5t-51 54.5t-85 87t-134 132.5q-6 6 -15.5 15t-20.5 17t-22 13.5t-22 5.5q-14 0 -21.5 -11t-11 -26t-4 -30t-0.5 -24q0 -38 10 -74.5t26.5 -70.5t38 -65.5t45.5 -61.5h-333
q26 37 44.5 71.5t30.5 73t18 84.5t6 106q0 82 -21 164.5t-77 150.5h320q0 -39 17 -80t43.5 -80t58.5 -73.5t61 -60t51.5 -40.5t30.5 -15q11 0 14 22t3 52q0 81 -28.5 147.5t-88.5 127.5h340q-31 -42 -53.5 -87t-37.5 -91.5t-22 -92.5t-7 -88v-357z" />
    <glyph glyph-name="Ncommaaccent" unicode="&#x145;" horiz-adv-x="853" 
d="M415 6q0 26 20 40t44 14q23 0 38.5 -19t15.5 -42q0 -18 -7 -39t-17.5 -38t-24 -28.5t-25.5 -11.5q-5 0 -10.5 2t-5.5 10q0 4 3.5 7.5l8.5 8.5q9 10 15 18t8 18h-3q-27 0 -43.5 16.5t-16.5 43.5zM728 -66q-26 23 -41.5 38t-29.5 30.5t-32 35.5t-51 54.5t-85 87t-134 132.5
q-6 6 -15.5 15t-20.5 17t-22 13.5t-22 5.5q-14 0 -21.5 -11t-11 -26t-4 -30t-0.5 -24q0 -38 10 -74.5t26.5 -70.5t38 -65.5t45.5 -61.5h-333q26 37 44.5 71.5t30.5 73t18 84.5t6 106q0 82 -21 164.5t-77 150.5h320q0 -39 17 -80t43.5 -80t58.5 -73.5t61 -60t51.5 -40.5
t30.5 -15q11 0 14 22t3 52q0 81 -28.5 147.5t-88.5 127.5h340q-31 -42 -53.5 -87t-37.5 -91.5t-22 -92.5t-7 -88v-357z" />
    <glyph glyph-name="ncommaaccent" unicode="&#x146;" horiz-adv-x="853" 
d="M415 6q0 26 20 40t44 14q23 0 38.5 -19t15.5 -42q0 -18 -7 -39t-17.5 -38t-24 -28.5t-25.5 -11.5q-5 0 -10.5 2t-5.5 10q0 4 3.5 7.5l8.5 8.5q9 10 15 18t8 18h-3q-27 0 -43.5 16.5t-16.5 43.5zM728 -66q-26 23 -41.5 38t-29.5 30.5t-32 35.5t-51 54.5t-85 87t-134 132.5
q-6 6 -15.5 15t-20.5 17t-22 13.5t-22 5.5q-14 0 -21.5 -11t-11 -26t-4 -30t-0.5 -24q0 -38 10 -74.5t26.5 -70.5t38 -65.5t45.5 -61.5h-333q26 37 44.5 71.5t30.5 73t18 84.5t6 106q0 82 -21 164.5t-77 150.5h320q0 -39 17 -80t43.5 -80t58.5 -73.5t61 -60t51.5 -40.5
t30.5 -15q11 0 14 22t3 52q0 81 -28.5 147.5t-88.5 127.5h340q-31 -42 -53.5 -87t-37.5 -91.5t-22 -92.5t-7 -88v-357z" />
    <glyph glyph-name="Ncaron" unicode="&#x147;" horiz-adv-x="853" 
d="M597 884q-22 -17 -38 -38t-26.5 -43t-15.5 -42.5t-5 -37.5q0 -7 3 -15l3 -9h-120q0 9 1 15t1 9q0 48 -23.5 86t-59.5 75h142q-17 -11 -20.5 -19t-3.5 -16q0 -3 3 -15.5t7.5 -27t10 -25.5t11.5 -11q4 0 8 10.5t7.5 23t6 24t2.5 14.5q0 12 -3 23t-14 19h123zM728 -66
q-26 23 -41.5 38t-29.5 30.5t-32 35.5t-51 54.5t-85 87t-134 132.5q-6 6 -15.5 15t-20.5 17t-22 13.5t-22 5.5q-14 0 -21.5 -11t-11 -26t-4 -30t-0.5 -24q0 -38 10 -74.5t26.5 -70.5t38 -65.5t45.5 -61.5h-333q26 37 44.5 71.5t30.5 73t18 84.5t6 106q0 82 -21 164.5
t-77 150.5h320q0 -39 17 -80t43.5 -80t58.5 -73.5t61 -60t51.5 -40.5t30.5 -15q11 0 14 22t3 52q0 81 -28.5 147.5t-88.5 127.5h340q-31 -42 -53.5 -87t-37.5 -91.5t-22 -92.5t-7 -88v-357z" />
    <glyph glyph-name="ncaron" unicode="&#x148;" horiz-adv-x="853" 
d="M597 884q-22 -17 -38 -38t-26.5 -43t-15.5 -42.5t-5 -37.5q0 -7 3 -15l3 -9h-120q0 9 1 15t1 9q0 48 -23.5 86t-59.5 75h142q-17 -11 -20.5 -19t-3.5 -16q0 -3 3 -15.5t7.5 -27t10 -25.5t11.5 -11q4 0 8 10.5t7.5 23t6 24t2.5 14.5q0 12 -3 23t-14 19h123zM728 -66
q-26 23 -41.5 38t-29.5 30.5t-32 35.5t-51 54.5t-85 87t-134 132.5q-6 6 -15.5 15t-20.5 17t-22 13.5t-22 5.5q-14 0 -21.5 -11t-11 -26t-4 -30t-0.5 -24q0 -38 10 -74.5t26.5 -70.5t38 -65.5t45.5 -61.5h-333q26 37 44.5 71.5t30.5 73t18 84.5t6 106q0 82 -21 164.5
t-77 150.5h320q0 -39 17 -80t43.5 -80t58.5 -73.5t61 -60t51.5 -40.5t30.5 -15q11 0 14 22t3 52q0 81 -28.5 147.5t-88.5 127.5h340q-31 -42 -53.5 -87t-37.5 -91.5t-22 -92.5t-7 -88v-357z" />
    <glyph glyph-name="napostrophe" unicode="&#x149;" horiz-adv-x="1031" 
d="M907 -66q-26 23 -41.5 38t-29.5 30.5t-32 35.5t-51 54.5t-85 87t-134 132.5q-6 6 -15.5 15t-20.5 17t-22 13.5t-22 5.5q-14 0 -21.5 -11t-11 -26t-4 -30t-0.5 -24q0 -38 10 -74.5t26.5 -70.5t38 -65.5t45.5 -61.5h-333q26 37 44.5 71.5t30.5 73t18 84.5t6 106
q0 82 -21 164.5t-77 150.5h320q0 -39 17 -80t43.5 -80t58.5 -73.5t61 -60t51.5 -40.5t30.5 -15q11 0 14 22t3 52q0 81 -28.5 147.5t-88.5 127.5h340q-31 -42 -53.5 -87t-37.5 -91.5t-22 -92.5t-7 -88v-357zM4 683q0 18 8 32.5t20.5 24.5t29 15t33.5 5q16 0 30 -7t24.5 -19
t16.5 -27.5t6 -32.5q0 -26 -10 -55.5t-25.5 -54t-34 -41t-35.5 -16.5q-8 0 -15.5 3t-7.5 14q0 5 5 10.5t12 12.5q13 14 21.5 25.5t10.5 25.5h-4q-38 0 -61.5 23.5t-23.5 61.5z" />
    <glyph glyph-name="Eng" unicode="&#x14a;" horiz-adv-x="853" 
d="M848 650q-31 -42 -53.5 -87t-37.5 -91.5t-22 -92.5t-7 -88q0 -69 1.5 -114.5t4 -76t4 -49.5t1.5 -35q0 -49 -13.5 -94t-40.5 -79t-68.5 -54.5t-98.5 -20.5q-21 0 -41.5 5t-40.5 11.5t-39 11.5t-36 5t-31 -5.5t-28 -22.5v-4q0 -1 -1 -1t-3.5 23.5t-5 54.5t-4.5 61t-2 43
q26 -42 60 -61t71 -19q63 0 102.5 13t61 33t29 44t7.5 46q0 32 -19 62.5t-53.5 65.5t-83 78t-106.5 100q-6 6 -15.5 15t-20.5 17t-22 13.5t-22 5.5q-14 0 -21.5 -11t-11 -26t-4 -30t-0.5 -24q0 -38 10 -74.5t26.5 -70.5t38 -65.5t45.5 -61.5h-333q26 37 44.5 71.5t30.5 73
t18 84.5t6 106q0 82 -21 164.5t-77 150.5h320q0 -39 17 -80t43.5 -80t58.5 -73.5t61 -60t51.5 -40.5t30.5 -15q11 0 14 22t3 52q0 81 -28.5 147.5t-88.5 127.5h340z" />
    <glyph glyph-name="eng" unicode="&#x14b;" horiz-adv-x="853" 
d="M848 650q-31 -42 -53.5 -87t-37.5 -91.5t-22 -92.5t-7 -88q0 -69 1.5 -114.5t4 -76t4 -49.5t1.5 -35q0 -49 -13.5 -94t-40.5 -79t-68.5 -54.5t-98.5 -20.5q-21 0 -41.5 5t-40.5 11.5t-39 11.5t-36 5t-31 -5.5t-28 -22.5v-4q0 -1 -1 -1t-3.5 23.5t-5 54.5t-4.5 61t-2 43
q26 -42 60 -61t71 -19q63 0 102.5 13t61 33t29 44t7.5 46q0 32 -19 62.5t-53.5 65.5t-83 78t-106.5 100q-6 6 -15.5 15t-20.5 17t-22 13.5t-22 5.5q-14 0 -21.5 -11t-11 -26t-4 -30t-0.5 -24q0 -38 10 -74.5t26.5 -70.5t38 -65.5t45.5 -61.5h-333q26 37 44.5 71.5t30.5 73
t18 84.5t6 106q0 82 -21 164.5t-77 150.5h320q0 -39 17 -80t43.5 -80t58.5 -73.5t61 -60t51.5 -40.5t30.5 -15q11 0 14 22t3 52q0 81 -28.5 147.5t-88.5 127.5h340z" />
    <glyph glyph-name="Omacron" unicode="&#x14c;" 
d="M581 700h-297v84h297v-84zM241 324q0 -48 10 -93t33 -79.5t60 -55t91 -20.5q52 0 89 20.5t61 54.5t35 78.5t11 91.5q0 45 -8.5 90t-29.5 81t-56 59t-88 23q-54 0 -93.5 -20.5t-65 -55t-37.5 -79.5t-12 -95zM816 324q0 -77 -30 -141t-80.5 -110t-117.5 -71.5t-142 -25.5
q-78 0 -150 19.5t-126.5 61t-87 105.5t-32.5 153q0 86 31 152.5t83.5 111.5t121 68.5t143.5 23.5q83 0 153.5 -22.5t122.5 -66t81.5 -108.5t29.5 -150z" />
    <glyph glyph-name="omacron" unicode="&#x14d;" 
d="M581 700h-297v84h297v-84zM241 324q0 -48 10 -93t33 -79.5t60 -55t91 -20.5q52 0 89 20.5t61 54.5t35 78.5t11 91.5q0 45 -8.5 90t-29.5 81t-56 59t-88 23q-54 0 -93.5 -20.5t-65 -55t-37.5 -79.5t-12 -95zM816 324q0 -77 -30 -141t-80.5 -110t-117.5 -71.5t-142 -25.5
q-78 0 -150 19.5t-126.5 61t-87 105.5t-32.5 153q0 86 31 152.5t83.5 111.5t121 68.5t143.5 23.5q83 0 153.5 -22.5t122.5 -66t81.5 -108.5t29.5 -150z" />
    <glyph glyph-name="Obreve" unicode="&#x14e;" 
d="M389 799q0 -23 9.5 -40.5t33.5 -17.5q23 0 34 17t11 40v2h76q0 -24 -9.5 -44t-25 -35t-36.5 -23t-45 -8t-46.5 6t-40 19.5t-27.5 34t-10 48.5v2h76v-1zM241 324q0 -48 10 -93t33 -79.5t60 -55t91 -20.5q52 0 89 20.5t61 54.5t35 78.5t11 91.5q0 45 -8.5 90t-29.5 81
t-56 59t-88 23q-54 0 -93.5 -20.5t-65 -55t-37.5 -79.5t-12 -95zM816 324q0 -77 -30 -141t-80.5 -110t-117.5 -71.5t-142 -25.5q-78 0 -150 19.5t-126.5 61t-87 105.5t-32.5 153q0 86 31 152.5t83.5 111.5t121 68.5t143.5 23.5q83 0 153.5 -22.5t122.5 -66t81.5 -108.5
t29.5 -150z" />
    <glyph glyph-name="obreve" unicode="&#x14f;" 
d="M389 799q0 -23 9.5 -40.5t33.5 -17.5q23 0 34 17t11 40v2h76q0 -24 -9.5 -44t-25 -35t-36.5 -23t-45 -8t-46.5 6t-40 19.5t-27.5 34t-10 48.5v2h76v-1zM241 324q0 -48 10 -93t33 -79.5t60 -55t91 -20.5q52 0 89 20.5t61 54.5t35 78.5t11 91.5q0 45 -8.5 90t-29.5 81
t-56 59t-88 23q-54 0 -93.5 -20.5t-65 -55t-37.5 -79.5t-12 -95zM816 324q0 -77 -30 -141t-80.5 -110t-117.5 -71.5t-142 -25.5q-78 0 -150 19.5t-126.5 61t-87 105.5t-32.5 153q0 86 31 152.5t83.5 111.5t121 68.5t143.5 23.5q83 0 153.5 -22.5t122.5 -66t81.5 -108.5
t29.5 -150z" />
    <glyph glyph-name="Ohungarumlaut" unicode="&#x150;" 
d="M669 872l-135 -172h-66l75 172h126zM509 872l-135 -172h-66l75 172h126zM241 324q0 -48 10 -93t33 -79.5t60 -55t91 -20.5q52 0 89 20.5t61 54.5t35 78.5t11 91.5q0 45 -8.5 90t-29.5 81t-56 59t-88 23q-54 0 -93.5 -20.5t-65 -55t-37.5 -79.5t-12 -95zM816 324
q0 -77 -30 -141t-80.5 -110t-117.5 -71.5t-142 -25.5q-78 0 -150 19.5t-126.5 61t-87 105.5t-32.5 153q0 86 31 152.5t83.5 111.5t121 68.5t143.5 23.5q83 0 153.5 -22.5t122.5 -66t81.5 -108.5t29.5 -150z" />
    <glyph glyph-name="ohungarumlaut" unicode="&#x151;" 
d="M669 872l-135 -172h-66l75 172h126zM509 872l-135 -172h-66l75 172h126zM241 324q0 -48 10 -93t33 -79.5t60 -55t91 -20.5q52 0 89 20.5t61 54.5t35 78.5t11 91.5q0 45 -8.5 90t-29.5 81t-56 59t-88 23q-54 0 -93.5 -20.5t-65 -55t-37.5 -79.5t-12 -95zM816 324
q0 -77 -30 -141t-80.5 -110t-117.5 -71.5t-142 -25.5q-78 0 -150 19.5t-126.5 61t-87 105.5t-32.5 153q0 86 31 152.5t83.5 111.5t121 68.5t143.5 23.5q83 0 153.5 -22.5t122.5 -66t81.5 -108.5t29.5 -150z" />
    <glyph glyph-name="OE" unicode="&#x152;" horiz-adv-x="1277" 
d="M241 324q0 -48 10 -93t33 -79.5t60 -55t91 -20.5q52 0 89 20.5t61 54.5t35 78.5t11 91.5q0 45 -8.5 90t-29.5 81t-56 59t-88 23q-54 0 -93.5 -20.5t-65 -55t-37.5 -79.5t-12 -95zM584 0q-32 -11 -67 -17.5t-71 -6.5q-78 0 -150 19.5t-126.5 61t-87 105.5t-32.5 153
q0 86 31 152.5t83.5 111.5t121 68.5t143.5 23.5q80 0 149 -22h24h42t69 0.5t104.5 0.5h148.5h200l71 -224q-31 27 -64.5 51.5t-68.5 44t-71 31t-72 11.5q-43 0 -74.5 -5t-51.5 -18t-29.5 -36t-9.5 -58q0 -38 16 -61.5t58 -23.5q38 0 70.5 21t56 47t37.5 48.5t15 25.5v-4
v-14.5t-0.5 -34.5t-1 -64t-1 -103.5t-1.5 -152.5q-16 19 -33 41.5t-38 42.5t-46 33.5t-56 13.5q-34 0 -51 -20t-17 -54q0 -31 11.5 -52.5t31 -34.5t44.5 -18.5t53 -5.5q53 0 96 17t80.5 44.5t70.5 62.5t66 72q-20 -99 -31 -153.5t-17 -80.5t-8 -31.5t-3 -7.5h-614z" />
    <glyph glyph-name="oe" unicode="&#x153;" horiz-adv-x="1277" 
d="M241 324q0 -48 10 -93t33 -79.5t60 -55t91 -20.5q52 0 89 20.5t61 54.5t35 78.5t11 91.5q0 45 -8.5 90t-29.5 81t-56 59t-88 23q-54 0 -93.5 -20.5t-65 -55t-37.5 -79.5t-12 -95zM584 0q-32 -11 -67 -17.5t-71 -6.5q-78 0 -150 19.5t-126.5 61t-87 105.5t-32.5 153
q0 86 31 152.5t83.5 111.5t121 68.5t143.5 23.5q80 0 149 -22h24h42t69 0.5t104.5 0.5h148.5h200l71 -224q-31 27 -64.5 51.5t-68.5 44t-71 31t-72 11.5q-43 0 -74.5 -5t-51.5 -18t-29.5 -36t-9.5 -58q0 -38 16 -61.5t58 -23.5q38 0 70.5 21t56 47t37.5 48.5t15 25.5v-4
v-14.5t-0.5 -34.5t-1 -64t-1 -103.5t-1.5 -152.5q-16 19 -33 41.5t-38 42.5t-46 33.5t-56 13.5q-34 0 -51 -20t-17 -54q0 -31 11.5 -52.5t31 -34.5t44.5 -18.5t53 -5.5q53 0 96 17t80.5 44.5t70.5 62.5t66 72q-20 -99 -31 -153.5t-17 -80.5t-8 -31.5t-3 -7.5h-614z" />
    <glyph glyph-name="Racute" unicode="&#x154;" horiz-adv-x="833" 
d="M579 871l-135 -172h-66l75 172h126zM281 489q0 -22 8.5 -38.5t23 -26.5t33 -15t38.5 -5q26 0 53.5 4.5t50.5 16t38 31t15 50.5q0 32 -30 50t-87 18q-21 0 -46 -3t-46.5 -12t-36 -25.5t-14.5 -44.5zM606 0q-21 12 -33 31t-18 41.5t-8.5 46t-5.5 45.5q-4 35 -13.5 62.5
t-26.5 46t-43.5 28t-64.5 9.5q-57 0 -80 -23t-23 -77q0 -40 10 -71t26.5 -55.5t37.5 -45t42 -38.5h-381q32 20 54.5 58t37 82.5t21.5 89t7 77.5q0 45 -4 91.5t-16 90.5t-33.5 85t-57.5 76q65 0 112.5 1.5t84.5 3.5t66 4.5t56.5 4.5t57 3.5t67.5 1.5q23 0 52 -1.5t60 -6.5
t60.5 -14.5t52.5 -25.5t37 -39t14 -56q0 -66 -39 -104.5t-114 -55.5q21 -11 42 -23.5t38 -28t29 -35t16 -44.5q6 -33 11 -66t14.5 -63.5t27.5 -57.5t49 -48h-222z" />
    <glyph glyph-name="racute" unicode="&#x155;" horiz-adv-x="833" 
d="M579 871l-135 -172h-66l75 172h126zM281 489q0 -22 8.5 -38.5t23 -26.5t33 -15t38.5 -5q26 0 53.5 4.5t50.5 16t38 31t15 50.5q0 32 -30 50t-87 18q-21 0 -46 -3t-46.5 -12t-36 -25.5t-14.5 -44.5zM606 0q-21 12 -33 31t-18 41.5t-8.5 46t-5.5 45.5q-4 35 -13.5 62.5
t-26.5 46t-43.5 28t-64.5 9.5q-57 0 -80 -23t-23 -77q0 -40 10 -71t26.5 -55.5t37.5 -45t42 -38.5h-381q32 20 54.5 58t37 82.5t21.5 89t7 77.5q0 45 -4 91.5t-16 90.5t-33.5 85t-57.5 76q65 0 112.5 1.5t84.5 3.5t66 4.5t56.5 4.5t57 3.5t67.5 1.5q23 0 52 -1.5t60 -6.5
t60.5 -14.5t52.5 -25.5t37 -39t14 -56q0 -66 -39 -104.5t-114 -55.5q21 -11 42 -23.5t38 -28t29 -35t16 -44.5q6 -33 11 -66t14.5 -63.5t27.5 -57.5t49 -48h-222z" />
    <glyph glyph-name="Rcommaaccent" unicode="&#x156;" horiz-adv-x="833" 
d="M432 -25q0 26 20 40t44 14q23 0 38.5 -19t15.5 -42q0 -18 -7 -39t-17.5 -38t-24 -28.5t-25.5 -11.5q-5 0 -10.5 2t-5.5 10q0 4 3.5 7.5l8.5 8.5q9 10 15 18t8 18h-3q-27 0 -43.5 16.5t-16.5 43.5zM281 489q0 -22 8.5 -38.5t23 -26.5t33 -15t38.5 -5q26 0 53.5 4.5
t50.5 16t38 31t15 50.5q0 32 -30 50t-87 18q-21 0 -46 -3t-46.5 -12t-36 -25.5t-14.5 -44.5zM606 0q-21 12 -33 31t-18 41.5t-8.5 46t-5.5 45.5q-4 35 -13.5 62.5t-26.5 46t-43.5 28t-64.5 9.5q-57 0 -80 -23t-23 -77q0 -40 10 -71t26.5 -55.5t37.5 -45t42 -38.5h-381
q32 20 54.5 58t37 82.5t21.5 89t7 77.5q0 45 -4 91.5t-16 90.5t-33.5 85t-57.5 76q65 0 112.5 1.5t84.5 3.5t66 4.5t56.5 4.5t57 3.5t67.5 1.5q23 0 52 -1.5t60 -6.5t60.5 -14.5t52.5 -25.5t37 -39t14 -56q0 -66 -39 -104.5t-114 -55.5q21 -11 42 -23.5t38 -28t29 -35
t16 -44.5q6 -33 11 -66t14.5 -63.5t27.5 -57.5t49 -48h-222z" />
    <glyph glyph-name="rcommaaccent" unicode="&#x157;" horiz-adv-x="833" 
d="M432 -25q0 26 20 40t44 14q23 0 38.5 -19t15.5 -42q0 -18 -7 -39t-17.5 -38t-24 -28.5t-25.5 -11.5q-5 0 -10.5 2t-5.5 10q0 4 3.5 7.5l8.5 8.5q9 10 15 18t8 18h-3q-27 0 -43.5 16.5t-16.5 43.5zM281 489q0 -22 8.5 -38.5t23 -26.5t33 -15t38.5 -5q26 0 53.5 4.5
t50.5 16t38 31t15 50.5q0 32 -30 50t-87 18q-21 0 -46 -3t-46.5 -12t-36 -25.5t-14.5 -44.5zM606 0q-21 12 -33 31t-18 41.5t-8.5 46t-5.5 45.5q-4 35 -13.5 62.5t-26.5 46t-43.5 28t-64.5 9.5q-57 0 -80 -23t-23 -77q0 -40 10 -71t26.5 -55.5t37.5 -45t42 -38.5h-381
q32 20 54.5 58t37 82.5t21.5 89t7 77.5q0 45 -4 91.5t-16 90.5t-33.5 85t-57.5 76q65 0 112.5 1.5t84.5 3.5t66 4.5t56.5 4.5t57 3.5t67.5 1.5q23 0 52 -1.5t60 -6.5t60.5 -14.5t52.5 -25.5t37 -39t14 -56q0 -66 -39 -104.5t-114 -55.5q21 -11 42 -23.5t38 -28t29 -35
t16 -44.5q6 -33 11 -66t14.5 -63.5t27.5 -57.5t49 -48h-222z" />
    <glyph glyph-name="Rcaron" unicode="&#x158;" horiz-adv-x="833" 
d="M556 884q-22 -17 -38 -38t-26.5 -43t-15.5 -42.5t-5 -37.5q0 -7 3 -15l3 -9h-120q0 9 1 15t1 9q0 48 -23.5 86t-59.5 75h142q-17 -11 -20.5 -19t-3.5 -16q0 -3 3 -15.5t7.5 -27t10 -25.5t11.5 -11q4 0 8 10.5t7.5 23t6 24t2.5 14.5q0 12 -3 23t-14 19h123zM281 489
q0 -22 8.5 -38.5t23 -26.5t33 -15t38.5 -5q26 0 53.5 4.5t50.5 16t38 31t15 50.5q0 32 -30 50t-87 18q-21 0 -46 -3t-46.5 -12t-36 -25.5t-14.5 -44.5zM606 0q-21 12 -33 31t-18 41.5t-8.5 46t-5.5 45.5q-4 35 -13.5 62.5t-26.5 46t-43.5 28t-64.5 9.5q-57 0 -80 -23
t-23 -77q0 -40 10 -71t26.5 -55.5t37.5 -45t42 -38.5h-381q32 20 54.5 58t37 82.5t21.5 89t7 77.5q0 45 -4 91.5t-16 90.5t-33.5 85t-57.5 76q65 0 112.5 1.5t84.5 3.5t66 4.5t56.5 4.5t57 3.5t67.5 1.5q23 0 52 -1.5t60 -6.5t60.5 -14.5t52.5 -25.5t37 -39t14 -56
q0 -66 -39 -104.5t-114 -55.5q21 -11 42 -23.5t38 -28t29 -35t16 -44.5q6 -33 11 -66t14.5 -63.5t27.5 -57.5t49 -48h-222z" />
    <glyph glyph-name="rcaron" unicode="&#x159;" horiz-adv-x="833" 
d="M556 884q-22 -17 -38 -38t-26.5 -43t-15.5 -42.5t-5 -37.5q0 -7 3 -15l3 -9h-120q0 9 1 15t1 9q0 48 -23.5 86t-59.5 75h142q-17 -11 -20.5 -19t-3.5 -16q0 -3 3 -15.5t7.5 -27t10 -25.5t11.5 -11q4 0 8 10.5t7.5 23t6 24t2.5 14.5q0 12 -3 23t-14 19h123zM281 489
q0 -22 8.5 -38.5t23 -26.5t33 -15t38.5 -5q26 0 53.5 4.5t50.5 16t38 31t15 50.5q0 32 -30 50t-87 18q-21 0 -46 -3t-46.5 -12t-36 -25.5t-14.5 -44.5zM606 0q-21 12 -33 31t-18 41.5t-8.5 46t-5.5 45.5q-4 35 -13.5 62.5t-26.5 46t-43.5 28t-64.5 9.5q-57 0 -80 -23
t-23 -77q0 -40 10 -71t26.5 -55.5t37.5 -45t42 -38.5h-381q32 20 54.5 58t37 82.5t21.5 89t7 77.5q0 45 -4 91.5t-16 90.5t-33.5 85t-57.5 76q65 0 112.5 1.5t84.5 3.5t66 4.5t56.5 4.5t57 3.5t67.5 1.5q23 0 52 -1.5t60 -6.5t60.5 -14.5t52.5 -25.5t37 -39t14 -56
q0 -66 -39 -104.5t-114 -55.5q21 -11 42 -23.5t38 -28t29 -35t16 -44.5q6 -33 11 -66t14.5 -63.5t27.5 -57.5t49 -48h-222z" />
    <glyph glyph-name="Sacute" unicode="&#x15a;" horiz-adv-x="719" 
d="M542 879l-135 -172h-66l75 172h126zM667 340q-33 50 -65 92.5t-67.5 74t-76 49t-91.5 17.5q-13 0 -30 -3t-31.5 -10t-24.5 -19.5t-10 -30.5q0 -21 13 -37.5t44.5 -33.5t85 -38.5t133.5 -52.5q58 -22 97.5 -65t39.5 -109q0 -59 -27.5 -98.5t-70 -63t-94 -33.5t-99.5 -10
q-55 0 -92 10t-65 21.5t-51.5 21.5t-50.5 10q-26 0 -47 -9t-44 -23q0 33 -0.5 65t-1 72.5t-1 94t-0.5 129.5q30 -48 59 -101t65 -97.5t83.5 -73.5t114.5 -29q21 0 42 6.5t37.5 18.5t27 30t10.5 42q0 36 -30.5 59.5t-76 42t-99 36.5t-99 41.5t-76 56.5t-30.5 83q0 56 26 92.5
t65.5 58.5t87.5 31t92 9q41 0 72.5 -6.5t61.5 -15t62 -15t72 -6.5q11 0 21.5 3.5t18.5 8t13.5 8t6.5 3.5v-307z" />
    <glyph glyph-name="sacute" unicode="&#x15b;" horiz-adv-x="719" 
d="M542 879l-135 -172h-66l75 172h126zM667 340q-33 50 -65 92.5t-67.5 74t-76 49t-91.5 17.5q-13 0 -30 -3t-31.5 -10t-24.5 -19.5t-10 -30.5q0 -21 13 -37.5t44.5 -33.5t85 -38.5t133.5 -52.5q58 -22 97.5 -65t39.5 -109q0 -59 -27.5 -98.5t-70 -63t-94 -33.5t-99.5 -10
q-55 0 -92 10t-65 21.5t-51.5 21.5t-50.5 10q-26 0 -47 -9t-44 -23q0 33 -0.5 65t-1 72.5t-1 94t-0.5 129.5q30 -48 59 -101t65 -97.5t83.5 -73.5t114.5 -29q21 0 42 6.5t37.5 18.5t27 30t10.5 42q0 36 -30.5 59.5t-76 42t-99 36.5t-99 41.5t-76 56.5t-30.5 83q0 56 26 92.5
t65.5 58.5t87.5 31t92 9q41 0 72.5 -6.5t61.5 -15t62 -15t72 -6.5q11 0 22 4t19.5 8.5t13.5 8t5 2.5v-307z" />
    <glyph glyph-name="Scircumflex" unicode="&#x15c;" horiz-adv-x="719" 
d="M219 700q22 17 38 38t26.5 43t15.5 43t5 37q0 8 -3 15l-3 9h120q0 -9 -1 -15t-1 -9q0 -48 23.5 -86t59.5 -75h-142q17 11 20.5 19t3.5 16q0 3 -2.5 15.5t-7 27t-10.5 25.5t-12 11q-4 0 -8 -10.5t-7.5 -23t-6 -24t-2.5 -14.5q0 -12 3 -23t14 -19h-123zM667 340
q-33 50 -65 92.5t-67.5 74t-76 49t-91.5 17.5q-13 0 -30 -3t-31.5 -10t-24.5 -19.5t-10 -30.5q0 -21 13 -37.5t44.5 -33.5t85 -38.5t133.5 -52.5q58 -22 97.5 -65t39.5 -109q0 -59 -27.5 -98.5t-70 -63t-94 -33.5t-99.5 -10q-55 0 -92 10t-65 21.5t-51.5 21.5t-50.5 10
q-26 0 -47 -9t-44 -23q0 33 -0.5 65t-1 72.5t-1 94t-0.5 129.5q30 -48 59 -101t65 -97.5t83.5 -73.5t114.5 -29q21 0 42 6.5t37.5 18.5t27 30t10.5 42q0 36 -30.5 59.5t-76 42t-99 36.5t-99 41.5t-76 56.5t-30.5 83q0 56 26 92.5t65.5 58.5t87.5 31t92 9q41 0 72.5 -6.5
t61.5 -15t62 -15t72 -6.5q11 0 21.5 3.5t18.5 8t13.5 8t6.5 3.5v-307z" />
    <glyph glyph-name="scircumflex" unicode="&#x15d;" horiz-adv-x="719" 
d="M219 700q22 17 38 38t26.5 43t15.5 43t5 37q0 8 -3 15l-3 9h120q0 -9 -1 -15t-1 -9q0 -48 23.5 -86t59.5 -75h-142q17 11 20.5 19t3.5 16q0 3 -2.5 15.5t-7 27t-10.5 25.5t-12 11q-4 0 -8 -10.5t-7.5 -23t-6 -24t-2.5 -14.5q0 -12 3 -23t14 -19h-123zM667 340
q-33 50 -65 92.5t-67.5 74t-76 49t-91.5 17.5q-13 0 -30 -3t-31.5 -10t-24.5 -19.5t-10 -30.5q0 -21 13 -37.5t44.5 -33.5t85 -38.5t133.5 -52.5q58 -22 97.5 -65t39.5 -109q0 -59 -27.5 -98.5t-70 -63t-94 -33.5t-99.5 -10q-55 0 -92 10t-65 21.5t-51.5 21.5t-50.5 10
q-26 0 -47 -9t-44 -23q0 33 -0.5 65t-1 72.5t-1 94t-0.5 129.5q30 -48 59 -101t65 -97.5t83.5 -73.5t114.5 -29q21 0 42 6.5t37.5 18.5t27 30t10.5 42q0 36 -30.5 59.5t-76 42t-99 36.5t-99 41.5t-76 56.5t-30.5 83q0 56 26 92.5t65.5 58.5t87.5 31t92 9q41 0 72.5 -6.5
t61.5 -15t62 -15t72 -6.5q11 0 22 4t19.5 8.5t13.5 8t5 2.5v-307z" />
    <glyph glyph-name="Scedilla" unicode="&#x15e;" horiz-adv-x="719" 
d="M273 -169q0 12 8 19.5t20 7.5q5 0 14 -3t9 -11q0 -2 -3 -5t-3 -8q0 -8 6.5 -13.5t15.5 -8.5t18 -4.5t15 -1.5q24 0 42.5 12t18.5 38q0 22 -13 33.5t-34 11.5q-17 0 -32.5 -7t-28.5 -19q-14 9 -26 15t-27 12q3 11 9.5 35.5t11.5 46.5q-27 7 -48 16t-39.5 16.5t-35.5 13
t-37 5.5q-26 0 -47 -9t-44 -23q0 33 -0.5 65t-1 72.5t-1 94t-0.5 129.5q30 -48 59 -101t65 -97.5t83.5 -73.5t114.5 -29q21 0 42 6.5t37.5 18.5t27 30t10.5 42q0 36 -30.5 59.5t-76 42t-99 36.5t-99 41.5t-76 56.5t-30.5 83q0 56 26 92.5t65.5 58.5t87.5 31t92 9
q41 0 72.5 -6.5t61.5 -15t62 -15t72 -6.5q11 0 21.5 3.5t18.5 8t13.5 8t6.5 3.5v-307q-33 50 -65 92.5t-67.5 74t-76 49t-91.5 17.5q-13 0 -30 -3t-31.5 -10t-24.5 -19.5t-10 -30.5q0 -21 13 -37.5t44.5 -33.5t85 -38.5t133.5 -52.5q58 -22 97.5 -65t39.5 -109
q0 -59 -27.5 -98.5t-70 -63t-94 -33.5t-99.5 -10q-17 0 -32 1t-26 3q-5 -14 -8 -27.5t-3 -17.5q0 -8 6 -8q5 0 24.5 9t46.5 9q18 0 35.5 -5t31.5 -14.5t22.5 -24.5t8.5 -35q0 -23 -11 -40t-28 -28.5t-37.5 -17.5t-40.5 -6q-13 0 -32 3t-36 10.5t-29 20t-12 30.5z" />
    <glyph glyph-name="scedilla" unicode="&#x15f;" horiz-adv-x="719" 
d="M273 -169q0 12 8 19.5t20 7.5q5 0 14 -3t9 -11q0 -2 -3 -5t-3 -8q0 -8 6.5 -13.5t15.5 -8.5t18 -4.5t15 -1.5q24 0 42.5 12t18.5 38q0 22 -13 33.5t-34 11.5q-17 0 -32.5 -7t-28.5 -19q-14 9 -26 15t-27 12q3 11 9.5 35.5t11.5 46.5q-27 7 -48 16t-39.5 16.5t-35.5 13
t-37 5.5q-26 0 -47 -9t-44 -23q0 33 -0.5 65t-1 72.5t-1 94t-0.5 129.5q30 -48 59 -101t65 -97.5t83.5 -73.5t114.5 -29q21 0 42 6.5t37.5 18.5t27 30t10.5 42q0 36 -30.5 59.5t-76 42t-99 36.5t-99 41.5t-76 56.5t-30.5 83q0 56 26 92.5t65.5 58.5t87.5 31t92 9
q41 0 72.5 -6.5t61.5 -15t62 -15t72 -6.5q11 0 22 4t19.5 8.5t13.5 8t5 2.5v-307q-33 50 -65 92.5t-67.5 74t-76 49t-91.5 17.5q-13 0 -30 -3t-31.5 -10t-24.5 -19.5t-10 -30.5q0 -21 13 -37.5t44.5 -33.5t85 -38.5t133.5 -52.5q58 -22 97.5 -65t39.5 -109
q0 -59 -27.5 -98.5t-70 -63t-94 -33.5t-99.5 -10q-17 0 -32 1t-26 3q-5 -14 -8 -27.5t-3 -17.5q0 -8 6 -8q5 0 24.5 9t46.5 9q18 0 35.5 -5t31.5 -14.5t22.5 -24.5t8.5 -35q0 -23 -11 -40t-28 -28.5t-37.5 -17.5t-40.5 -6q-13 0 -32 3t-36 10.5t-29 20t-12 30.5z" />
    <glyph glyph-name="Scaron" unicode="&#x160;" horiz-adv-x="719" 
d="M499 884q-22 -17 -38 -38t-26.5 -43t-15.5 -42.5t-5 -37.5q0 -7 3 -15l3 -9h-120q0 9 1 15t1 9q0 48 -23.5 86t-59.5 75h142q-17 -11 -20.5 -19t-3.5 -16q0 -3 3 -15.5t7.5 -27t10 -25.5t11.5 -11q4 0 8 10.5t7.5 23t6 24t2.5 14.5q0 12 -3 23t-14 19h123zM667 340
q-33 50 -65 92.5t-67.5 74t-76 49t-91.5 17.5q-13 0 -30 -3t-31.5 -10t-24.5 -19.5t-10 -30.5q0 -21 13 -37.5t44.5 -33.5t85 -38.5t133.5 -52.5q58 -22 97.5 -65t39.5 -109q0 -59 -27.5 -98.5t-70 -63t-94 -33.5t-99.5 -10q-55 0 -92 10t-65 21.5t-51.5 21.5t-50.5 10
q-26 0 -47 -9t-44 -23q0 33 -0.5 65t-1 72.5t-1 94t-0.5 129.5q30 -48 59 -101t65 -97.5t83.5 -73.5t114.5 -29q21 0 42 6.5t37.5 18.5t27 30t10.5 42q0 36 -30.5 59.5t-76 42t-99 36.5t-99 41.5t-76 56.5t-30.5 83q0 56 26 92.5t65.5 58.5t87.5 31t92 9q41 0 72.5 -6.5
t61.5 -15t62 -15t72 -6.5q11 0 21.5 3.5t18.5 8t13.5 8t6.5 3.5v-307z" />
    <glyph glyph-name="scaron" unicode="&#x161;" horiz-adv-x="719" 
d="M499 884q-22 -17 -38 -38t-26.5 -43t-15.5 -42.5t-5 -37.5q0 -7 3 -15l3 -9h-120q0 9 1 15t1 9q0 48 -23.5 86t-59.5 75h142q-17 -11 -20.5 -19t-3.5 -16q0 -3 3 -15.5t7.5 -27t10 -25.5t11.5 -11q4 0 8 10.5t7.5 23t6 24t2.5 14.5q0 12 -3 23t-14 19h123zM667 340
q-33 50 -65 92.5t-67.5 74t-76 49t-91.5 17.5q-13 0 -30 -3t-31.5 -10t-24.5 -19.5t-10 -30.5q0 -21 13 -37.5t44.5 -33.5t85 -38.5t133.5 -52.5q58 -22 97.5 -65t39.5 -109q0 -59 -27.5 -98.5t-70 -63t-94 -33.5t-99.5 -10q-55 0 -92 10t-65 21.5t-51.5 21.5t-50.5 10
q-26 0 -47 -9t-44 -23q0 33 -0.5 65t-1 72.5t-1 94t-0.5 129.5q30 -48 59 -101t65 -97.5t83.5 -73.5t114.5 -29q21 0 42 6.5t37.5 18.5t27 30t10.5 42q0 36 -30.5 59.5t-76 42t-99 36.5t-99 41.5t-76 56.5t-30.5 83q0 56 26 92.5t65.5 58.5t87.5 31t92 9q41 0 72.5 -6.5
t61.5 -15t62 -15t72 -6.5q11 0 21.5 3.5t18.5 8t13.5 8t6.5 3.5v-307z" />
    <glyph glyph-name="Tcommaaccent" unicode="&#x162;" horiz-adv-x="682" 
d="M286 -104q0 26 20 40t44 14q23 0 38.5 -19t15.5 -42q0 -18 -7 -39t-17.5 -38t-24 -28.5t-25.5 -11.5q-5 0 -10.5 2t-5.5 10q0 4 3.5 7.5l8.5 8.5q9 10 15 18t8 18h-3q-27 0 -43.5 16.5t-16.5 43.5zM657 650l1 -27t2 -68t2.5 -90t2.5 -92.5t1.5 -76.5t0.5 -41
q-10 15 -20.5 42.5t-22.5 59.5t-25.5 65.5t-30 60.5t-35.5 44.5t-42 17.5q-12 0 -22 -7t-17.5 -18.5t-13 -26.5t-9.5 -30q-9 -36 -12 -83q0 -81 7.5 -137t24 -98t43 -75.5t65.5 -69.5h-441q50 34 79.5 79t45.5 95t20.5 103t4.5 103q0 14 -2.5 40t-10 52t-21.5 45.5t-38 19.5
q-22 0 -42 -16.5t-37.5 -43t-32.5 -58t-27.5 -61t-22.5 -54t-17 -35.5q0 6 2 34t5.5 68t7.5 85.5t7.5 86t5.5 70t2 37.5h612z" />
    <glyph glyph-name="tcommaaccent" unicode="&#x163;" horiz-adv-x="682" 
d="M286 -104q0 26 20 40t44 14q23 0 38.5 -19t15.5 -42q0 -18 -7 -39t-17.5 -38t-24 -28.5t-25.5 -11.5q-5 0 -10.5 2t-5.5 10q0 4 3.5 7.5l8.5 8.5q9 10 15 18t8 18h-3q-27 0 -43.5 16.5t-16.5 43.5zM657 650l1 -27t2 -68t2.5 -90t2.5 -92.5t1.5 -76.5t0.5 -41
q-10 15 -20.5 42.5t-22.5 59.5t-25.5 65.5t-30 60.5t-35.5 44.5t-42 17.5q-12 0 -22 -7t-17.5 -18.5t-13 -26.5t-9.5 -30q-9 -36 -12 -83q0 -81 7.5 -137t24 -98t43 -75.5t65.5 -69.5h-441q50 34 79.5 79t45.5 95t20.5 103t4.5 103q0 14 -2.5 40t-10 52t-21.5 45.5t-38 19.5
q-22 0 -42 -16.5t-37.5 -43t-32.5 -58t-27.5 -61t-22.5 -54t-17 -35.5q0 6 2 34t5.5 68t7.5 85.5t7.5 86t5.5 70t2 37.5h612z" />
    <glyph glyph-name="Tcaron" unicode="&#x164;" horiz-adv-x="682" 
d="M481 884q-22 -17 -38 -38t-26.5 -43t-15.5 -42.5t-5 -37.5q0 -7 3 -15l3 -9h-120q0 9 1 15t1 9q0 48 -23.5 86t-59.5 75h142q-17 -11 -20.5 -19t-3.5 -16q0 -3 3 -15.5t7.5 -27t10 -25.5t11.5 -11q4 0 8 10.5t7.5 23t6 24t2.5 14.5q0 12 -3 23t-14 19h123zM657 650l1 -27
t2 -68t2.5 -90t2.5 -92.5t1.5 -76.5t0.5 -41q-10 15 -20.5 42.5t-22.5 59.5t-25.5 65.5t-30 60.5t-35.5 44.5t-42 17.5q-12 0 -22 -7t-17.5 -18.5t-13 -26.5t-9.5 -30q-9 -36 -12 -83q0 -81 7.5 -137t24 -98t43 -75.5t65.5 -69.5h-441q50 34 79.5 79t45.5 95t20.5 103
t4.5 103q0 14 -2.5 40t-10 52t-21.5 45.5t-38 19.5q-22 0 -42 -16.5t-37.5 -43t-32.5 -58t-27.5 -61t-22.5 -54t-17 -35.5q0 6 2 34t5.5 68t7.5 85.5t7.5 86t5.5 70t2 37.5h612z" />
    <glyph glyph-name="tcaron" unicode="&#x165;" horiz-adv-x="682" 
d="M481 884q-22 -17 -38 -38t-26.5 -43t-15.5 -42.5t-5 -37.5q0 -7 3 -15l3 -9h-120q0 9 1 15t1 9q0 48 -23.5 86t-59.5 75h142q-17 -11 -20.5 -19t-3.5 -16q0 -3 3 -15.5t7.5 -27t10 -25.5t11.5 -11q4 0 8 10.5t7.5 23t6 24t2.5 14.5q0 12 -3 23t-14 19h123zM657 650l1 -27
t2 -68t2.5 -90t2.5 -92.5t1.5 -76.5t0.5 -41q-10 15 -20.5 42.5t-22.5 59.5t-25.5 65.5t-30 60.5t-35.5 44.5t-42 17.5q-12 0 -22 -7t-17.5 -18.5t-13 -26.5t-9.5 -30q-9 -36 -12 -83q0 -81 7.5 -137t24 -98t43 -75.5t65.5 -69.5h-441q50 34 79.5 79t45.5 95t20.5 103
t4.5 103q0 14 -2.5 40t-10 52t-21.5 45.5t-38 19.5q-22 0 -42 -16.5t-37.5 -43t-32.5 -58t-27.5 -61t-22.5 -54t-17 -35.5q0 6 2 34t5.5 68t7.5 85.5t7.5 86t5.5 70t2 37.5h612z" />
    <glyph glyph-name="Tbar" unicode="&#x166;" horiz-adv-x="682" 
d="M657 650l1 -27t2 -68t2.5 -90t2.5 -92.5t1.5 -76.5t0.5 -41q-10 15 -20.5 42.5t-22.5 59.5t-25.5 65.5t-30 60.5t-35.5 44.5t-42 17.5q-12 0 -22 -7t-17.5 -18.5t-13 -26.5t-9.5 -30q-9 -36 -12 -83v-32h134v-74h-130q5 -52 15 -90t26.5 -68.5t40 -58t54.5 -57.5h-441
q37 25 62.5 56t42 66.5t26 74t13.5 77.5h-129v74h134q1 8 1 16v16q0 14 -2.5 40t-10 52t-21.5 45.5t-38 19.5q-22 0 -42 -16.5t-37.5 -43t-32.5 -58t-27.5 -61t-22.5 -54t-17 -35.5q0 6 2 34t5.5 68t7.5 85.5t7.5 86t5.5 70t2 37.5h612z" />
    <glyph glyph-name="tbar" unicode="&#x167;" horiz-adv-x="682" 
d="M657 650l1 -27t2 -68t2.5 -90t2.5 -92.5t1.5 -76.5t0.5 -41q-10 15 -20.5 42.5t-22.5 59.5t-25.5 65.5t-30 60.5t-35.5 44.5t-42 17.5q-12 0 -22 -7t-17.5 -18.5t-13 -26.5t-9.5 -30q-9 -36 -12 -83v-32h134v-74h-130q5 -52 15 -90t26.5 -68.5t40 -58t54.5 -57.5h-441
q37 25 62.5 56t42 66.5t26 74t13.5 77.5h-129v74h134q1 8 1 16v16q0 14 -2.5 40t-10 52t-21.5 45.5t-38 19.5q-22 0 -42 -16.5t-37.5 -43t-32.5 -58t-27.5 -61t-22.5 -54t-17 -35.5q0 6 2 34t5.5 68t7.5 85.5t7.5 86t5.5 70t2 37.5h612z" />
    <glyph glyph-name="Utilde" unicode="&#x168;" horiz-adv-x="774" 
d="M295 837q3 1 5.5 1.5t5.5 0.5q17 0 37 -9.5t40.5 -21t40.5 -21t36 -9.5t23.5 9.5t11.5 20.5t6.5 21t7.5 11q5 0 8.5 -9t6.5 -20t4.5 -22t1.5 -16q0 -39 -20.5 -61t-41.5 -22q-16 0 -35 9.5t-39 20.5t-40 20.5t-37 9.5t-25 -8t-12.5 -18.5t-7.5 -19.5t-10 -11q-4 0 -7.5 8
t-6 18.5t-4 21t-1.5 14.5q0 33 16.5 55t35.5 27zM96 208q0 20 0.5 34.5t1 32.5t1 43.5t0.5 68.5q0 39 -4.5 75t-15 69t-28.5 62.5t-46 56.5h355q-23 -37 -40 -72.5t-28 -71t-16.5 -73.5t-5.5 -82q0 -26 0.5 -56t4.5 -60.5t13 -59t25 -50.5t41 -35t61 -13q50 0 78.5 30t42 73
t16.5 90.5t3 82.5q0 89 -18 146t-40 90t-42 46.5t-23 14.5h337q-45 -52 -69.5 -105.5t-24.5 -119.5v-260q0 -49 -26.5 -83.5t-66.5 -56.5t-86.5 -32t-85.5 -10q-60 0 -116.5 10.5t-100.5 36t-70.5 69t-26.5 109.5z" />
    <glyph glyph-name="utilde" unicode="&#x169;" horiz-adv-x="774" 
d="M295 837q3 1 5.5 1.5t5.5 0.5q17 0 37 -9.5t40.5 -21t40.5 -21t36 -9.5t23.5 9.5t11.5 20.5t6.5 21t7.5 11q5 0 8.5 -8.5t6.5 -20t4.5 -22.5t1.5 -16q0 -39 -20.5 -61t-41.5 -22q-16 0 -35 9.5t-39 20.5t-40 20.5t-37 9.5t-25 -8t-12.5 -18.5t-7.5 -19.5t-10 -11
q-4 0 -7.5 8t-6 18.5t-4 21t-1.5 14.5q0 33 16.5 55t35.5 27zM96 208q0 20 0.5 34.5t1 32.5t1 43.5t0.5 68.5q0 39 -4.5 75t-15 69t-28.5 62.5t-46 56.5h355q-23 -37 -40 -72.5t-28 -71t-16.5 -73.5t-5.5 -82q0 -26 0.5 -56t4.5 -60.5t13 -59t25 -50.5t41 -35t61 -13
q50 0 78.5 30t42 73t16.5 90.5t3 82.5q0 89 -18 146t-40 90t-42 46.5t-23 14.5h337q-45 -52 -69.5 -105.5t-24.5 -119.5v-260q0 -49 -26.5 -83.5t-66.5 -56.5t-86.5 -32t-85.5 -10q-60 0 -116.5 10.5t-100.5 36t-70.5 69t-26.5 109.5z" />
    <glyph glyph-name="Umacron" unicode="&#x16a;" horiz-adv-x="774" 
d="M552 700h-297v84h297v-84zM96 208q0 20 0.5 34.5t1 32.5t1 43.5t0.5 68.5q0 39 -4.5 75t-15 69t-28.5 62.5t-46 56.5h355q-23 -37 -40 -72.5t-28 -71t-16.5 -73.5t-5.5 -82q0 -26 0.5 -56t4.5 -60.5t13 -59t25 -50.5t41 -35t61 -13q50 0 78.5 30t42 73t16.5 90.5t3 82.5
q0 89 -18 146t-40 90t-42 46.5t-23 14.5h337q-45 -52 -69.5 -105.5t-24.5 -119.5v-260q0 -49 -26.5 -83.5t-66.5 -56.5t-86.5 -32t-85.5 -10q-60 0 -116.5 10.5t-100.5 36t-70.5 69t-26.5 109.5z" />
    <glyph glyph-name="umacron" unicode="&#x16b;" horiz-adv-x="774" 
d="M552 700h-297v84h297v-84zM96 208q0 20 0.5 34.5t1 32.5t1 43.5t0.5 68.5q0 39 -4.5 75t-15 69t-28.5 62.5t-46 56.5h355q-23 -37 -40 -72.5t-28 -71t-16.5 -73.5t-5.5 -82q0 -26 0.5 -56t4.5 -60.5t13 -59t25 -50.5t41 -35t61 -13q50 0 78.5 30t42 73t16.5 90.5t3 82.5
q0 89 -18 146t-40 90t-42 46.5t-23 14.5h337q-45 -52 -69.5 -105.5t-24.5 -119.5v-260q0 -49 -26.5 -83.5t-66.5 -56.5t-86.5 -32t-85.5 -10q-60 0 -116.5 10.5t-100.5 36t-70.5 69t-26.5 109.5z" />
    <glyph glyph-name="Ubreve" unicode="&#x16c;" horiz-adv-x="774" 
d="M343 799q0 -23 9.5 -40.5t33.5 -17.5q23 0 34 17t11 40v2h76q0 -24 -9.5 -44t-25 -35t-36.5 -23t-45 -8t-46.5 6t-40 19.5t-27.5 34t-10 48.5v2h76v-1zM96 208q0 20 0.5 34.5t1 32.5t1 43.5t0.5 68.5q0 39 -4.5 75t-15 69t-28.5 62.5t-46 56.5h355q-23 -37 -40 -72.5
t-28 -71t-16.5 -73.5t-5.5 -82q0 -26 0.5 -56t4.5 -60.5t13 -59t25 -50.5t41 -35t61 -13q50 0 78.5 30t42 73t16.5 90.5t3 82.5q0 89 -18 146t-40 90t-42 46.5t-23 14.5h337q-45 -52 -69.5 -105.5t-24.5 -119.5v-260q0 -49 -26.5 -83.5t-66.5 -56.5t-86.5 -32t-85.5 -10
q-60 0 -116.5 10.5t-100.5 36t-70.5 69t-26.5 109.5z" />
    <glyph glyph-name="ubreve" unicode="&#x16d;" horiz-adv-x="774" 
d="M343 799q0 -23 9.5 -40.5t33.5 -17.5q23 0 34 17t11 40v2h76q0 -24 -9.5 -44t-25 -35t-36.5 -23t-45 -8t-46.5 6t-40 19.5t-27.5 34t-10 48.5v2h76v-1zM96 208q0 20 0.5 34.5t1 32.5t1 43.5t0.5 68.5q0 39 -4.5 75t-15 69t-28.5 62.5t-46 56.5h355q-23 -37 -40 -72.5
t-28 -71t-16.5 -73.5t-5.5 -82q0 -26 0.5 -56t4.5 -60.5t13 -59t25 -50.5t41 -35t61 -13q50 0 78.5 30t42 73t16.5 90.5t3 82.5q0 89 -18 146t-40 90t-42 46.5t-23 14.5h337q-45 -52 -69.5 -105.5t-24.5 -119.5v-260q0 -49 -26.5 -83.5t-66.5 -56.5t-86.5 -32t-85.5 -10
q-60 0 -116.5 10.5t-100.5 36t-70.5 69t-26.5 109.5z" />
    <glyph glyph-name="Uring" unicode="&#x16e;" horiz-adv-x="774" 
d="M377 772q0 -19 7.5 -32.5t26.5 -13.5t27.5 13.5t8.5 31.5q0 17 -6.5 31t-26.5 14t-28.5 -13.5t-8.5 -30.5zM507 773q0 -19 -7.5 -35t-20 -27.5t-29 -18t-35.5 -6.5q-39 0 -68.5 20t-29.5 65q0 42 28 65t66 23q42 0 69 -22t27 -64zM96 208q0 20 0.5 34.5t1 32.5t1 43.5
t0.5 68.5q0 39 -4.5 75t-15 69t-28.5 62.5t-46 56.5h355q-23 -37 -40 -72.5t-28 -71t-16.5 -73.5t-5.5 -82q0 -26 0.5 -56t4.5 -60.5t13 -59t25 -50.5t41 -35t61 -13q50 0 78.5 30t42 73t16.5 90.5t3 82.5q0 89 -18 146t-40 90t-42 46.5t-23 14.5h337q-45 -52 -69.5 -105.5
t-24.5 -119.5v-260q0 -49 -26.5 -83.5t-66.5 -56.5t-86.5 -32t-85.5 -10q-60 0 -116.5 10.5t-100.5 36t-70.5 69t-26.5 109.5z" />
    <glyph glyph-name="uring" unicode="&#x16f;" horiz-adv-x="774" 
d="M377 772q0 -19 7.5 -32.5t26.5 -13.5t27.5 13.5t8.5 31.5q0 17 -6.5 31t-26.5 14t-28.5 -13.5t-8.5 -30.5zM507 773q0 -19 -7.5 -35t-20 -27.5t-29 -18t-35.5 -6.5q-39 0 -68.5 20t-29.5 65q0 42 28 65t66 23q42 0 69 -22t27 -64zM96 208q0 20 0.5 34.5t1 32.5t1 43.5
t0.5 68.5q0 39 -4.5 75t-15 69t-28.5 62.5t-46 56.5h355q-23 -37 -40 -72.5t-28 -71t-16.5 -73.5t-5.5 -82q0 -26 0.5 -56t4.5 -60.5t13 -59t25 -50.5t41 -35t61 -13q50 0 78.5 30t42 73t16.5 90.5t3 82.5q0 89 -18 146t-40 90t-42 46.5t-23 14.5h337q-45 -52 -69.5 -105.5
t-24.5 -119.5v-260q0 -49 -26.5 -83.5t-66.5 -56.5t-86.5 -32t-85.5 -10q-60 0 -116.5 10.5t-100.5 36t-70.5 69t-26.5 109.5z" />
    <glyph glyph-name="Uhungarumlaut" unicode="&#x170;" horiz-adv-x="774" 
d="M645 872l-135 -172h-66l75 172h126zM485 872l-135 -172h-66l75 172h126zM96 208q0 20 0.5 34.5t1 32.5t1 43.5t0.5 68.5q0 39 -4.5 75t-15 69t-28.5 62.5t-46 56.5h355q-23 -37 -40 -72.5t-28 -71t-16.5 -73.5t-5.5 -82q0 -26 0.5 -56t4.5 -60.5t13 -59t25 -50.5t41 -35
t61 -13q50 0 78.5 30t42 73t16.5 90.5t3 82.5q0 89 -18 146t-40 90t-42 46.5t-23 14.5h337q-45 -52 -69.5 -105.5t-24.5 -119.5v-260q0 -49 -26.5 -83.5t-66.5 -56.5t-86.5 -32t-85.5 -10q-60 0 -116.5 10.5t-100.5 36t-70.5 69t-26.5 109.5z" />
    <glyph glyph-name="uhungarumlaut" unicode="&#x171;" horiz-adv-x="774" 
d="M645 872l-135 -172h-66l75 172h126zM485 872l-135 -172h-66l75 172h126zM96 208q0 20 0.5 34.5t1 32.5t1 43.5t0.5 68.5q0 39 -4.5 75t-15 69t-28.5 62.5t-46 56.5h355q-23 -37 -40 -72.5t-28 -71t-16.5 -73.5t-5.5 -82q0 -26 0.5 -56t4.5 -60.5t13 -59t25 -50.5t41 -35
t61 -13q50 0 78.5 30t42 73t16.5 90.5t3 82.5q0 89 -18 146t-40 90t-42 46.5t-23 14.5h337q-45 -52 -69.5 -105.5t-24.5 -119.5v-260q0 -49 -26.5 -83.5t-66.5 -56.5t-86.5 -32t-85.5 -10q-60 0 -116.5 10.5t-100.5 36t-70.5 69t-26.5 109.5z" />
    <glyph glyph-name="Uogonek" unicode="&#x172;" horiz-adv-x="774" 
d="M617 -68q12 -26 19.5 -40.5t14.5 -24.5t15 -19.5t21 -25.5q-30 0 -48 -16t-39 -35.5t-53.5 -35.5t-91.5 -16q-15 0 -31.5 4.5t-31 14.5t-24 27t-9.5 42q0 19 7.5 41.5t19.5 45.5t27.5 46.5t31.5 44.5q-9 -1 -18 -1.5t-17 -0.5q-60 0 -116.5 10.5t-100.5 36t-70.5 69
t-26.5 109.5q0 20 0.5 34.5t1 32.5t1 43.5t0.5 68.5q0 39 -4.5 75t-15 69t-28.5 62.5t-46 56.5h355q-23 -37 -40 -72.5t-28 -71t-16.5 -73.5t-5.5 -82q0 -26 0.5 -56t4.5 -60.5t13 -59t25 -50.5t41 -35t61 -13q50 0 78.5 30t42 73t16.5 90.5t3 82.5q0 89 -18 146t-40 90
t-42 46.5t-23 14.5h337q-45 -52 -69.5 -105.5t-24.5 -119.5v-260q0 -33 -12.5 -60t-33.5 -47t-48.5 -34.5t-57.5 -23.5q-24 -35 -42 -71.5t-18 -71.5q0 -32 13.5 -46.5t33.5 -14.5q29 0 49 13t33 33t19 44t6 46z" />
    <glyph glyph-name="uogonek" unicode="&#x173;" horiz-adv-x="774" 
d="M617 -68q12 -26 19.5 -40.5t14.5 -24.5t15 -19.5t21 -25.5q-30 0 -48 -16t-39 -35.5t-53.5 -35.5t-91.5 -16q-15 0 -31.5 4.5t-31 14.5t-24 27t-9.5 42q0 19 7.5 41.5t19.5 45.5t27.5 46.5t31.5 44.5q-9 -1 -18 -1.5t-17 -0.5q-60 0 -116.5 10.5t-100.5 36t-70.5 69
t-26.5 109.5q0 20 0.5 34.5t1 32.5t1 43.5t0.5 68.5q0 39 -4.5 75t-15 69t-28.5 62.5t-46 56.5h355q-23 -37 -40 -72.5t-28 -71t-16.5 -73.5t-5.5 -82q0 -26 0.5 -56t4.5 -60.5t13 -59t25 -50.5t41 -35t61 -13q50 0 78.5 30t42 73t16.5 90.5t3 82.5q0 89 -18 146t-40 90
t-42 46.5t-23 14.5h337q-45 -52 -69.5 -105.5t-24.5 -119.5v-260q0 -33 -12.5 -60t-33.5 -47t-48.5 -34.5t-57.5 -23.5q-24 -35 -42 -71.5t-18 -71.5q0 -32 13.5 -46.5t33.5 -14.5q29 0 49 13t33 33t19 44t6 46z" />
    <glyph glyph-name="Wcircumflex" unicode="&#x174;" horiz-adv-x="1111" 
d="M415 700q22 17 38 38t26.5 43t15.5 43t5 37q0 8 -3 15l-3 9h120q0 -9 -1 -15t-1 -9q0 -48 23.5 -86t59.5 -75h-142q17 11 20.5 19t3.5 16q0 3 -2.5 15.5t-7 27t-10.5 25.5t-12 11q-4 0 -8 -10.5t-7.5 -23t-6 -24t-2.5 -14.5q0 -12 3 -23t14 -19h-123zM596 0q7 11 12 30.5
t5 47.5q0 29 -5 54.5t-13 49.5t-17.5 48.5t-18.5 51.5q-2 6 -8.5 18.5t-17.5 12.5q-7 0 -13 -6.5t-10.5 -15t-8 -17t-5.5 -12.5q-17 -45 -30 -88.5t-13 -91.5q0 -28 7.5 -44t13.5 -38h-294q10 14 17 27t11.5 27t6.5 31.5t2 39.5q0 29 -8 72t-23 93t-34.5 103t-43.5 102
t-50 89.5t-53 65.5h374q-13 -11 -25.5 -23.5t-22 -28.5t-15 -36t-5.5 -46q0 -9 2 -31t6 -50t10 -58t13 -55t16 -41t19 -16q11 0 28.5 30.5t38.5 76.5t42 99t38.5 99t29 76.5t13.5 30.5t14 -31t30 -78t40.5 -101.5t45.5 -101.5t43.5 -78t34.5 -31q12 0 21 14.5t16 37t12 48.5
t8 49t4.5 39.5t1.5 19.5q0 29 -10.5 57t-28 52.5t-40.5 44t-49 32.5h396q-31 -25 -61 -69.5t-56.5 -99t-49 -114t-38.5 -115t-25 -101.5t-9 -74q0 -20 4.5 -38.5t12.5 -38.5h-288z" />
    <glyph glyph-name="wcircumflex" unicode="&#x175;" horiz-adv-x="1111" 
d="M415 700q22 17 38 38t26.5 43t15.5 43t5 37q0 8 -3 15l-3 9h120q0 -9 -1 -15t-1 -9q0 -48 23.5 -86t59.5 -75h-142q17 11 20.5 19t3.5 16q0 3 -2.5 15.5t-7 27t-10.5 25.5t-12 11q-4 0 -8 -10.5t-7.5 -23t-6 -24t-2.5 -14.5q0 -12 3 -23t14 -19h-123zM596 0q7 11 12 30.5
t5 47.5q0 29 -5 54.5t-13 49.5t-17.5 48.5t-18.5 51.5q-2 6 -8.5 18.5t-17.5 12.5q-7 0 -13 -6.5t-10.5 -15t-8 -17t-5.5 -12.5q-17 -45 -30 -88.5t-13 -91.5q0 -28 7.5 -44t13.5 -38h-294q10 14 17 27t11.5 27t6.5 31.5t2 39.5q0 29 -8 72t-23 93t-34.5 103t-43.5 102
t-50 89.5t-53 65.5h374q-13 -11 -25.5 -23.5t-22 -28.5t-15 -36t-5.5 -46q0 -9 2 -31t6 -50t10 -58t13 -55t16 -41t19 -16q11 0 28.5 30.5t38.5 76.5t42 99t38.5 99t29 76.5t13.5 30.5t14 -31t30 -78t40.5 -101.5t45.5 -101.5t43.5 -78t34.5 -31q12 0 21 14.5t16 37t12 48.5
t8 49t4.5 39.5t1.5 19.5q0 29 -10.5 57t-28 52.5t-40.5 44t-49 32.5h396q-31 -25 -61 -69.5t-56.5 -99t-49 -114t-38.5 -115t-25 -101.5t-9 -74q0 -20 4.5 -38.5t12.5 -38.5h-288z" />
    <glyph glyph-name="Ycircumflex" unicode="&#x176;" horiz-adv-x="859" 
d="M329 700q22 17 38 38t26.5 43t15.5 43t5 37q0 8 -3 15l-3 9h120q0 -9 -1 -15t-1 -9q0 -48 23.5 -86t59.5 -75h-142q17 11 20.5 19t3.5 16q0 3 -2.5 15.5t-7 27t-10.5 25.5t-12 11q-4 0 -8 -10.5t-7.5 -23t-6 -24t-2.5 -14.5q0 -12 3 -23t14 -19h-123zM215 0
q23 18 45.5 34.5t39.5 36t27.5 46t10.5 65.5q0 45 -21.5 93t-49.5 90q-30 42 -58 82.5t-59 77.5t-66 68.5t-79 56.5h395q-6 -9 -14.5 -17t-16.5 -18.5t-13.5 -24.5t-5.5 -34q0 -10 12 -38t29 -57t36 -51.5t32 -22.5q12 0 29.5 21t34 50.5t28.5 61t12 53.5q0 26 -13.5 44
t-28.5 33h333q-13 -10 -27.5 -18.5t-35.5 -24t-49.5 -42t-69.5 -72.5q-27 -30 -56 -65.5t-52.5 -75.5t-39 -83t-15.5 -87q0 -60 31.5 -106.5t82.5 -75.5h-408z" />
    <glyph glyph-name="ycircumflex" unicode="&#x177;" horiz-adv-x="859" 
d="M329 700q22 17 38 38t26.5 43t15.5 43t5 37q0 8 -3 15l-3 9h120q0 -9 -1 -15t-1 -9q0 -48 23.5 -86t59.5 -75h-142q17 11 20.5 19t3.5 16q0 3 -2.5 15.5t-7 27t-10.5 25.5t-12 11q-4 0 -8 -10.5t-7.5 -23t-6 -24t-2.5 -14.5q0 -12 3 -23t14 -19h-123zM215 0
q23 18 45.5 34.5t39.5 36t27.5 46t10.5 65.5q0 45 -21.5 93t-49.5 90q-30 42 -58 82.5t-59 77.5t-66 68.5t-79 56.5h395q-6 -9 -14.5 -17t-16.5 -18.5t-13.5 -24.5t-5.5 -34q0 -10 12 -38t29 -57t36 -51.5t32 -22.5q12 0 29.5 21t34 50.5t28.5 61t12 53.5q0 26 -13.5 44
t-28.5 33h333q-13 -10 -27.5 -18.5t-35.5 -24t-49.5 -42t-69.5 -72.5q-27 -30 -56 -65.5t-52.5 -75.5t-39 -83t-15.5 -87q0 -60 31.5 -106.5t82.5 -75.5h-408z" />
    <glyph glyph-name="Ydieresis" unicode="&#x178;" horiz-adv-x="859" 
d="M480 760q0 26 20 40t44 14q23 0 38.5 -18t15.5 -39q0 -26 -17 -41t-41 -15q-27 0 -43.5 16t-16.5 43zM326 760q0 26 20 40t44 14q23 0 38.5 -18t15.5 -39q0 -26 -17 -41t-41 -15q-27 0 -43.5 16t-16.5 43zM215 0q23 18 45.5 34.5t39.5 36t27.5 46t10.5 65.5
q0 45 -21.5 93t-49.5 90q-30 42 -58 82.5t-59 77.5t-66 68.5t-79 56.5h395q-6 -9 -14.5 -17t-16.5 -18.5t-13.5 -24.5t-5.5 -34q0 -10 12 -38t29 -57t36 -51.5t32 -22.5q12 0 29.5 21t34 50.5t28.5 61t12 53.5q0 26 -13.5 44t-28.5 33h333q-13 -10 -27.5 -18.5t-35.5 -24
t-49.5 -42t-69.5 -72.5q-27 -30 -56 -65.5t-52.5 -75.5t-39 -83t-15.5 -87q0 -60 31.5 -106.5t82.5 -75.5h-408z" />
    <glyph glyph-name="Zacute" unicode="&#x179;" horiz-adv-x="711" 
d="M552 867l-135 -172h-66l75 172h126zM694 382q-18 -128 -28 -204t-15 -115.5t-6.5 -51l-1.5 -11.5h-643q52 64 97.5 122t87.5 112q35 45 68 91.5t59 87t42 72.5t16 48q0 19 -12.5 33.5t-33.5 14.5q-35 0 -65.5 -16t-57 -41.5t-49.5 -57.5t-42 -64t-35 -61.5t-29 -49.5
q4 43 8 90.5t7.5 94.5t7.5 91.5t9 82.5h618q-91 -103 -178.5 -214t-159.5 -226q-12 -20 -23 -42.5t-11 -45.5q0 -17 12.5 -30t53.5 -13q40 0 73 15t61 40t51 56.5t43.5 65.5t39 66.5t36.5 59.5z" />
    <glyph glyph-name="zacute" unicode="&#x17a;" horiz-adv-x="711" 
d="M552 867l-135 -172h-66l75 172h126zM694 382q-18 -128 -28 -204t-15 -115.5t-6.5 -51l-1.5 -11.5h-643q52 64 97.5 122t87.5 112q35 45 68 91.5t59 87t42 72.5t16 48q0 19 -12.5 33.5t-33.5 14.5q-35 0 -65.5 -16t-57 -41.5t-49.5 -57.5t-42 -64t-35 -61.5t-29 -49.5
q4 43 8 90.5t7.5 94.5t7.5 91.5t9 82.5h618q-91 -103 -178.5 -214t-159.5 -226q-12 -20 -23 -42.5t-11 -45.5q0 -17 12.5 -30t53.5 -13q40 0 73 15t61 40t51 56.5t43.5 65.5t39 66.5t36.5 59.5z" />
    <glyph glyph-name="Zdotaccent" unicode="&#x17b;" horiz-adv-x="711" 
d="M335 750q0 27 17 42.5t43 15.5q24 0 40 -16t16 -40t-16 -41t-40 -17q-26 0 -43 16t-17 40zM694 382q-18 -128 -28 -204t-15 -115.5t-6.5 -51l-1.5 -11.5h-643q52 64 97.5 122t87.5 112q35 45 68 91.5t59 87t42 72.5t16 48q0 19 -12.5 33.5t-33.5 14.5q-35 0 -65.5 -16
t-57 -41.5t-49.5 -57.5t-42 -64t-35 -61.5t-29 -49.5q4 43 8 90.5t7.5 94.5t7.5 91.5t9 82.5h618q-91 -103 -178.5 -214t-159.5 -226q-12 -20 -23 -42.5t-11 -45.5q0 -17 12.5 -30t53.5 -13q40 0 73 15t61 40t51 56.5t43.5 65.5t39 66.5t36.5 59.5z" />
    <glyph glyph-name="zdotaccent" unicode="&#x17c;" horiz-adv-x="711" 
d="M335 750q0 27 17 42.5t43 15.5q24 0 40 -16t16 -40t-16 -41t-40 -17q-26 0 -43 16t-17 40zM694 382q-18 -128 -28 -204t-15 -115.5t-6.5 -51l-1.5 -11.5h-643q52 64 97.5 122t87.5 112q35 45 68 91.5t59 87t42 72.5t16 48q0 19 -12.5 33.5t-33.5 14.5q-35 0 -65.5 -16
t-57 -41.5t-49.5 -57.5t-42 -64t-35 -61.5t-29 -49.5q4 43 8 90.5t7.5 94.5t7.5 91.5t9 82.5h618q-91 -103 -178.5 -214t-159.5 -226q-12 -20 -23 -42.5t-11 -45.5q0 -17 12.5 -30t53.5 -13q40 0 73 15t61 40t51 56.5t43.5 65.5t39 66.5t36.5 59.5z" />
    <glyph glyph-name="Zcaron" unicode="&#x17d;" horiz-adv-x="711" 
d="M511 881q-22 -17 -38 -38t-26.5 -43t-15.5 -42.5t-5 -37.5q0 -7 3 -15l3 -9h-120q0 9 1 15t1 9q0 48 -23.5 86t-59.5 75h142q-17 -11 -20.5 -19t-3.5 -16q0 -3 3 -15.5t7.5 -27t10 -25.5t11.5 -11q4 0 8 10.5t7.5 23t6 24t2.5 14.5q0 12 -3 23t-14 19h123zM694 382
q-18 -128 -28 -204t-15 -115.5t-6.5 -51l-1.5 -11.5h-643q52 64 97.5 122t87.5 112q35 45 68 91.5t59 87t42 72.5t16 48q0 19 -12.5 33.5t-33.5 14.5q-35 0 -65.5 -16t-57 -41.5t-49.5 -57.5t-42 -64t-35 -61.5t-29 -49.5q4 43 8 90.5t7.5 94.5t7.5 91.5t9 82.5h618
q-91 -103 -178.5 -214t-159.5 -226q-12 -20 -23 -42.5t-11 -45.5q0 -17 12.5 -30t53.5 -13q40 0 73 15t61 40t51 56.5t43.5 65.5t39 66.5t36.5 59.5z" />
    <glyph glyph-name="zcaron" unicode="&#x17e;" horiz-adv-x="711" 
d="M511 881q-22 -17 -38 -38t-26.5 -43t-15.5 -42.5t-5 -37.5q0 -7 3 -15l3 -9h-120q0 9 1 15t1 9q0 48 -23.5 86t-59.5 75h142q-17 -11 -20.5 -19t-3.5 -16q0 -3 3 -15.5t7.5 -27t10 -25.5t11.5 -11q4 0 8 10.5t7.5 23t6 24t2.5 14.5q0 12 -3 23t-14 19h123zM694 382
q-18 -128 -28 -204t-15 -115.5t-6.5 -51l-1.5 -11.5h-643q52 64 97.5 122t87.5 112q35 45 68 91.5t59 87t42 72.5t16 48q0 19 -12.5 33.5t-33.5 14.5q-35 0 -65.5 -16t-57 -41.5t-49.5 -57.5t-42 -64t-35 -61.5t-29 -49.5q4 43 8 90.5t7.5 94.5t7.5 91.5t9 82.5h618
q-91 -103 -178.5 -214t-159.5 -226q-12 -20 -23 -42.5t-11 -45.5q0 -17 12.5 -30t53.5 -13q40 0 73 15t61 40t51 56.5t43.5 65.5t39 66.5t36.5 59.5z" />
    <glyph glyph-name="longs" unicode="&#x17f;" horiz-adv-x="619" 
d="M7 0q24 31 41 57t28 52t16.5 55.5t5.5 66.5q0 54 -7 108t-7 100q0 49 11.5 94t37 79t65.5 54.5t97 20.5q21 0 47 -6t53 -12.5t53 -12.5t46 -6q16 0 29 5t22.5 11t16 11t9.5 5q2 -8 3 -20.5l4 -50t9.5 -110.5t18.5 -201q-37 74 -64 124.5t-50.5 81.5t-47 44.5t-53.5 13.5
q-45 0 -71 -26t-39.5 -64t-17 -80.5t-3.5 -74.5q0 -49 6 -90.5t23.5 -79.5t49 -74.5t81.5 -74.5h-413z" />
    <glyph glyph-name="florin" unicode="&#x192;" horiz-adv-x="698" 
d="M141 25q29 0 50 -10t34.5 -25.5t20 -35.5t6.5 -41q0 -14 -4 -28t-11.5 -25.5t-19.5 -18.5t-28 -7q-32 0 -45.5 17.5t-13.5 47.5q0 3 2.5 16t2.5 22q0 7 -5 7q-7 0 -15 -7t-8 -24q0 -30 5.5 -55.5t16.5 -45t28 -30.5t41 -11q30 0 49 16t29.5 40.5t14 54.5t3.5 59
q0 20 -1 49.5t-3.5 63t-6.5 67.5t-10 64h-111v104h95q-11 55 -21 100.5t-10 75.5q0 57 15.5 97t44 65.5t68 37.5t88.5 12q50 0 92 -13.5t72 -40.5t47 -67t17 -93q0 -60 -27 -97t-87 -37q-29 0 -50 10t-34.5 25.5t-20 35.5t-6.5 41q0 14 4 28t11.5 25.5t19.5 18.5t28 7
q32 0 45.5 -17.5t13.5 -47.5q0 -3 -2.5 -16t-2.5 -22q0 -7 5 -7q7 0 15 7t8 24q0 30 -5.5 55.5t-16.5 45t-28 30.5t-41 11q-30 0 -50.5 -16t-33 -40.5t-17.5 -54.5t-5 -59q0 -23 4 -55t12 -69h111v-104h-96q4 -32 12 -69t15.5 -75.5t13.5 -77.5t6 -74q0 -57 -15.5 -97
t-44 -65.5t-68 -37.5t-88.5 -12q-50 0 -92 13.5t-72 40.5t-47 67t-17 93q0 60 27 97t87 37z" />
    <glyph glyph-name="Ohorn" unicode="&#x1a0;" 
d="M241 324q0 -48 10 -93t33 -79.5t60 -55t91 -20.5q52 0 89 20.5t61 54.5t35 78.5t11 91.5q0 45 -8.5 90t-29.5 81t-56 59t-88 23q-54 0 -93.5 -20.5t-65 -55t-37.5 -79.5t-12 -95zM639 709q0 26 20 40t44 14q23 0 38.5 -19t15.5 -42q0 -16 -5.5 -33.5t-14 -33.5t-19 -28.5
t-21.5 -18.5q57 -45 88 -110.5t31 -153.5q0 -77 -30 -141t-80.5 -110t-117.5 -71.5t-142 -25.5q-78 0 -150 19.5t-126.5 61t-87 105.5t-32.5 153q0 86 31 152.5t83.5 111.5t121 68.5t143.5 23.5q142 0 243 -65l7 7q9 10 15 18t8 18h-3q-27 0 -43.5 16.5t-16.5 43.5z" />
    <glyph glyph-name="ohorn" unicode="&#x1a1;" 
d="M241 324q0 -48 10 -93t33 -79.5t60 -55t91 -20.5q52 0 89 20.5t61 54.5t35 78.5t11 91.5q0 45 -8.5 90t-29.5 81t-56 59t-88 23q-54 0 -93.5 -20.5t-65 -55t-37.5 -79.5t-12 -95zM639 709q0 26 20 40t44 14q23 0 38.5 -19t15.5 -42q0 -16 -5.5 -33.5t-14 -33.5t-19 -28.5
t-21.5 -18.5q57 -45 88 -110.5t31 -153.5q0 -77 -30 -141t-80.5 -110t-117.5 -71.5t-142 -25.5q-78 0 -150 19.5t-126.5 61t-87 105.5t-32.5 153q0 86 31 152.5t83.5 111.5t121 68.5t143.5 23.5q142 0 243 -65l7 7q9 10 15 18t8 18h-3q-27 0 -43.5 16.5t-16.5 43.5z" />
    <glyph glyph-name="Uhorn" unicode="&#x1af;" horiz-adv-x="774" 
d="M695 759q0 26 20 40t44 14q23 0 38.5 -19t15.5 -42q0 -26 -13.5 -55.5t-30.5 -46.5q-45 -52 -69.5 -105.5t-24.5 -119.5v-260q0 -49 -26.5 -83.5t-66.5 -56.5t-86.5 -32t-85.5 -10q-60 0 -116.5 10.5t-100.5 36t-70.5 69t-26.5 109.5q0 20 0.5 34.5t1 32.5t1 43.5
t0.5 68.5q0 39 -4.5 75t-15 69t-28.5 62.5t-46 56.5h355q-23 -37 -40 -72.5t-28 -71t-16.5 -73.5t-5.5 -82q0 -26 0.5 -56t4.5 -60.5t13 -59t25 -50.5t41 -35t61 -13q50 0 78.5 30t42 73t16.5 90.5t3 82.5q0 89 -18 146t-40 90t-42 46.5t-23 14.5h265q32 0 46.5 14.5
t14.5 34.5h-3q-27 0 -43.5 16.5t-16.5 43.5z" />
    <glyph glyph-name="uhorn" unicode="&#x1b0;" horiz-adv-x="774" 
d="M695 759q0 26 20 40t44 14q23 0 38.5 -19t15.5 -42q0 -26 -13.5 -55.5t-30.5 -46.5q-45 -52 -69.5 -105.5t-24.5 -119.5v-260q0 -49 -26.5 -83.5t-66.5 -56.5t-86.5 -32t-85.5 -10q-60 0 -116.5 10.5t-100.5 36t-70.5 69t-26.5 109.5q0 20 0.5 34.5t1 32.5t1 43.5
t0.5 68.5q0 39 -4.5 75t-15 69t-28.5 62.5t-46 56.5h355q-23 -37 -40 -72.5t-28 -71t-16.5 -73.5t-5.5 -82q0 -26 0.5 -56t4.5 -60.5t13 -59t25 -50.5t41 -35t61 -13q50 0 78.5 30t42 73t16.5 90.5t3 82.5q0 89 -18 146t-40 90t-42 46.5t-23 14.5h265q32 0 46.5 14.5
t14.5 34.5h-3q-27 0 -43.5 16.5t-16.5 43.5z" />
    <glyph glyph-name="Scommaaccent" unicode="&#x218;" horiz-adv-x="719" 
d="M322 -122q0 26 20 40t44 14q23 0 38.5 -19t15.5 -42q0 -18 -7 -39t-17.5 -38t-24 -28.5t-25.5 -11.5q-5 0 -10.5 2t-5.5 10q0 4 3.5 7.5l8.5 8.5q9 10 15 18t8 18h-3q-27 0 -43.5 16.5t-16.5 43.5zM667 340q-33 50 -65 92.5t-67.5 74t-76 49t-91.5 17.5q-13 0 -30 -3
t-31.5 -10t-24.5 -19.5t-10 -30.5q0 -21 13 -37.5t44.5 -33.5t85 -38.5t133.5 -52.5q58 -22 97.5 -65t39.5 -109q0 -59 -27.5 -98.5t-70 -63t-94 -33.5t-99.5 -10q-55 0 -92 10t-65 21.5t-51.5 21.5t-50.5 10q-26 0 -47 -9t-44 -23q0 33 -0.5 65t-1 72.5t-1 94t-0.5 129.5
q30 -48 59 -101t65 -97.5t83.5 -73.5t114.5 -29q21 0 42 6.5t37.5 18.5t27 30t10.5 42q0 36 -30.5 59.5t-76 42t-99 36.5t-99 41.5t-76 56.5t-30.5 83q0 56 26 92.5t65.5 58.5t87.5 31t92 9q41 0 72.5 -6.5t61.5 -15t62 -15t72 -6.5q11 0 21.5 3.5t18.5 8t13.5 8t6.5 3.5
v-307z" />
    <glyph glyph-name="scommaaccent" unicode="&#x219;" horiz-adv-x="719" 
d="M322 -122q0 26 20 40t44 14q23 0 38.5 -19t15.5 -42q0 -18 -7 -39t-17.5 -38t-24 -28.5t-25.5 -11.5q-5 0 -10.5 2t-5.5 10q0 4 3.5 7.5l8.5 8.5q9 10 15 18t8 18h-3q-27 0 -43.5 16.5t-16.5 43.5zM667 340q-33 50 -65 92.5t-67.5 74t-76 49t-91.5 17.5q-13 0 -30 -3
t-31.5 -10t-24.5 -19.5t-10 -30.5q0 -21 13 -37.5t44.5 -33.5t85 -38.5t133.5 -52.5q58 -22 97.5 -65t39.5 -109q0 -59 -27.5 -98.5t-70 -63t-94 -33.5t-99.5 -10q-55 0 -92 10t-65 21.5t-51.5 21.5t-50.5 10q-26 0 -47 -9t-44 -23q0 33 -0.5 65t-1 72.5t-1 94t-0.5 129.5
q30 -48 59 -101t65 -97.5t83.5 -73.5t114.5 -29q21 0 42 6.5t37.5 18.5t27 30t10.5 42q0 36 -30.5 59.5t-76 42t-99 36.5t-99 41.5t-76 56.5t-30.5 83q0 56 26 92.5t65.5 58.5t87.5 31t92 9q41 0 72.5 -6.5t61.5 -15t62 -15t72 -6.5q11 0 22 4t19.5 8.5t13.5 8t5 2.5v-307z
" />
    <glyph glyph-name="circumflex" unicode="&#x2c6;" horiz-adv-x="356" 
d="M46 700q22 17 38 38t26.5 43t15.5 43t5 37q0 8 -3 15l-3 9h120q0 -9 -1 -15t-1 -9q0 -48 23.5 -86t59.5 -75h-142q17 11 20.5 19t3.5 16q0 3 -2.5 15.5t-7 27t-10.5 25.5t-12 11q-4 0 -8 -10.5t-7.5 -23t-6 -24t-2.5 -14.5q0 -12 3 -23t14 -19h-123z" />
    <glyph glyph-name="caron" unicode="&#x2c7;" horiz-adv-x="356" 
d="M326 884q-22 -17 -38 -38t-26.5 -43t-15.5 -42.5t-5 -37.5q0 -7 3 -15l3 -9h-120q0 9 1 15t1 9q0 48 -23.5 86t-59.5 75h142q-17 -11 -20.5 -19t-3.5 -16q0 -3 3 -15.5t7.5 -27t10 -25.5t11.5 -11q4 0 8 10.5t7.5 23t6 24t2.5 14.5q0 12 -3 23t-14 19h123z" />
    <glyph glyph-name="breve" unicode="&#x2d8;" horiz-adv-x="357" 
d="M136 799q0 -23 9.5 -40.5t33.5 -17.5q23 0 34 17t11 40v2h76q0 -24 -9.5 -44t-25 -35t-36.5 -23t-45 -8t-46.5 6t-40 19.5t-27.5 34t-10 48.5v2h76v-1z" />
    <glyph glyph-name="dotaccent" unicode="&#x2d9;" horiz-adv-x="268" 
d="M79 750q0 27 17 42.5t43 15.5q24 0 40 -16t16 -40t-16 -41t-40 -17q-26 0 -43 16t-17 40z" />
    <glyph glyph-name="ring" unicode="&#x2da;" horiz-adv-x="315" 
d="M120 772q0 -19 7.5 -32.5t26.5 -13.5t27.5 13.5t8.5 31.5q0 17 -6.5 31t-26.5 14t-28.5 -13.5t-8.5 -30.5zM250 773q0 -19 -7.5 -35t-20 -27.5t-29 -18t-35.5 -6.5q-39 0 -68.5 20t-29.5 65q0 42 28 65t66 23q42 0 69 -22t27 -64z" />
    <glyph glyph-name="ogonek" unicode="&#x2db;" horiz-adv-x="493" 
d="M582 -69q12 -26 19.5 -40.5t14.5 -24.5t15 -19.5t21 -25.5q-30 0 -48 -16t-39 -35.5t-53.5 -35.5t-91.5 -16q-15 0 -31.5 4.5t-31 14.5t-24 27t-9.5 42q0 31 17.5 68t42 73t51 67t43.5 50l14 -59q-26 -37 -45 -75t-19 -74q0 -32 13.5 -46.5t33.5 -14.5q29 0 49 13t33 33
t19 44t6 46z" />
    <glyph glyph-name="tilde" unicode="&#x2dc;" horiz-adv-x="346" 
d="M88 837q3 1 5.5 1.5t5.5 0.5q17 0 37 -9.5t40.5 -21t40.5 -21t36 -9.5t23.5 9.5t11.5 20.5t6.5 21t7.5 11q5 0 8.5 -9t6.5 -20t4.5 -22t1.5 -16q0 -39 -20.5 -61t-41.5 -22q-16 0 -35 9.5t-39 20.5t-40 20.5t-37 9.5t-25 -8t-12.5 -18.5t-7.5 -19.5t-10 -11q-4 0 -7.5 8
t-6 18.5t-4 21t-1.5 14.5q0 33 16.5 55t35.5 27z" />
    <glyph glyph-name="hungarumlaut" unicode="&#x2dd;" horiz-adv-x="348" 
d="M436 872l-135 -172h-66l75 172h126zM276 872l-135 -172h-66l75 172h126z" />
    <glyph glyph-name="hookabovecomb" unicode="&#x309;" horiz-adv-x="271" 
d="M89 811q0 26 20 40t44 14q23 0 38.5 -19t15.5 -42q0 -18 -7 -39t-17.5 -38t-24 -28.5t-25.5 -11.5q-5 0 -10.5 2t-5.5 10q0 4 3.5 7.5l8.5 8.5q9 10 15 18t8 18h-3q-27 0 -43.5 16.5t-16.5 43.5z" />
    <glyph glyph-name="dotbelowcomb" unicode="&#x323;" horiz-adv-x="268" 
d="M79 -105q0 27 17 42.5t43 15.5q24 0 40 -16t16 -40t-16 -41t-40 -17q-26 0 -43 16t-17 40z" />
    <glyph glyph-name="tonos" unicode="&#x384;" horiz-adv-x="290" 
d="M276 872l-135 -172h-66l75 172h126z" />
    <glyph glyph-name="dieresistonos" unicode="&#x385;" horiz-adv-x="339" 
d="M134 823l32 107h100l-66 -107h-66zM34 761q0 26 20 40t44 14q23 0 38.5 -18t15.5 -39q0 -26 -17 -41t-41 -15q-27 0 -43.5 16t-16.5 43zM188 761q0 26 20 40t44 14q23 0 38.5 -18t15.5 -39q0 -26 -17 -41t-41 -15q-27 0 -43.5 16t-16.5 43z" />
    <glyph glyph-name="Alphatonos" unicode="&#x386;" horiz-adv-x="865" 
d="M206 722l-135 -172h-66l75 172h126zM301 293q0 -17 9 -30t28 -13h109q21 0 31.5 14.5t10.5 34.5q0 16 -9.5 45.5t-23.5 58.5t-30.5 50.5t-30.5 21.5q-15 0 -31.5 -24.5t-30.5 -56t-23 -61t-9 -40.5zM5 0q43 55 82 117.5t69 129.5t47.5 138t17.5 143q0 30 -3 61t-11 61
h398l1 -1q-2 -14 -2 -27v-27q0 -85 21.5 -163.5t57.5 -152.5t82 -143.5t95 -135.5h-317q11 18 18.5 36t7.5 41q0 26 -13 41t-33 22.5t-44 9t-46 1.5h-21q-27 0 -53.5 -1.5t-47.5 -8t-34 -20t-13 -36.5q0 -22 10 -44.5t24 -40.5h-293z" />
    <glyph glyph-name="Epsilontonos" unicode="&#x388;" horiz-adv-x="760" 
d="M41 743l-135 -172h-66l75 172h126zM36 0q18 37 35 74t30 75.5t21 80t8 86.5q0 62 -8 108.5t-22 84.5t-33 71t-42 69h12.5h30.5t63 0.5t109 0.5h168h241l71 -224q-31 27 -64.5 51.5t-68.5 44t-71 31t-72 11.5q-43 0 -74.5 -5t-51.5 -18t-29.5 -36t-9.5 -58q0 -38 16 -61.5
t58 -23.5q27 0 50.5 10.5t43.5 26t35.5 34t26.5 34.5t17 27l6 11v-4v-13.5t-0.5 -33t-1 -63.5t-1 -104.5t-1.5 -155.5q-16 19 -33 41.5t-38 42.5t-46 33.5t-56 13.5q-34 0 -51 -20t-17 -54q0 -31 11.5 -52.5t31 -34.5t44.5 -18.5t53 -5.5q53 0 96 17t80.5 44.5t70.5 62.5
t66 72q-20 -99 -31 -153.5t-17 -80.5t-8 -31.5t-3 -7.5h-645z" />
    <glyph glyph-name="Etatonos" unicode="&#x389;" horiz-adv-x="877" 
d="M39 736l-135 -172h-66l75 172h126zM485 0q20 22 38.5 47t33 52t23 55t8.5 55q0 29 -15.5 45.5t-36.5 24.5t-43 10t-36 2h-35q-27 0 -49.5 -2t-38.5 -9.5t-25 -21.5t-9 -38q0 -66 24 -118.5t69 -101.5h-357q28 45 48.5 85t34.5 79.5t21 80t7 85.5q0 66 -7 113t-22 82.5
t-38 64.5t-55 60h379q-17 -22 -35 -46.5t-32.5 -50t-24 -52t-9.5 -53.5q0 -22 10.5 -35t27 -19.5t37 -8.5t39.5 -2h43q20 0 44 1.5t44.5 9t34.5 23t14 43.5q0 57 -28 105t-73 85h356q-22 -33 -41.5 -72.5t-34.5 -82.5t-23.5 -86.5t-8.5 -82.5q0 -48 6 -90t19 -81t32.5 -77
t46.5 -78h-363z" />
    <glyph glyph-name="Iotatonos" unicode="&#x38a;" horiz-adv-x="425" 
d="M56 735l-135 -172h-66l75 172h126zM400 650q-22 -33 -42 -68t-35 -72t-23.5 -75.5t-8.5 -78.5q0 -195 109 -356h-374q24 45 45 89.5t37 89.5t25.5 90t9.5 90q0 85 -27 156.5t-91 134.5h375z" />
    <glyph glyph-name="Omicrontonos" unicode="&#x38c;" 
d="M199 736l-135 -172h-66l75 172h126zM241 324q0 -48 10 -93t33 -79.5t60 -55t91 -20.5q52 0 89 20.5t61 54.5t35 78.5t11 91.5q0 45 -8.5 90t-29.5 81t-56 59t-88 23q-54 0 -93.5 -20.5t-65 -55t-37.5 -79.5t-12 -95zM816 324q0 -77 -30 -141t-80.5 -110t-117.5 -71.5
t-142 -25.5q-78 0 -150 19.5t-126.5 61t-87 105.5t-32.5 153q0 86 31 152.5t83.5 111.5t121 68.5t143.5 23.5q83 0 153.5 -22.5t122.5 -66t81.5 -108.5t29.5 -150z" />
    <glyph glyph-name="Upsilontonos" unicode="&#x38e;" horiz-adv-x="859" 
d="M39 736l-135 -172h-66l75 172h126zM215 0q23 18 45.5 34.5t39.5 36t27.5 46t10.5 65.5q0 45 -21.5 93t-49.5 90q-30 42 -58 82.5t-59 77.5t-66 68.5t-79 56.5h395q-6 -9 -14.5 -17t-16.5 -18.5t-13.5 -24.5t-5.5 -34q0 -10 12 -38t29 -57t36 -51.5t32 -22.5q12 0 29.5 21
t34 50.5t28.5 61t12 53.5q0 26 -13.5 44t-28.5 33h333q-13 -10 -27.5 -18.5t-35.5 -24t-49.5 -42t-69.5 -72.5q-27 -30 -56 -65.5t-52.5 -75.5t-39 -83t-15.5 -87q0 -60 31.5 -106.5t82.5 -75.5h-408z" />
    <glyph glyph-name="Omegatonos" unicode="&#x38f;" 
d="M175 735l-135 -172h-66l75 172h126zM790 0h-272l-50 190q41 8 71.5 30.5t51 51.5t30.5 60.5t10 58.5q0 26 -8.5 58t-29.5 59.5t-56 46.5t-88 19q-54 0 -93.5 -16.5t-65 -42.5t-37.5 -58t-12 -63q0 -29 10 -62.5t30.5 -63t52.5 -51.5t76 -29l-50 -188h-272l-24 214
q20 -37 38.5 -61t37.5 -37.5t38.5 -18.5t41.5 -5q54 0 80.5 13t39.5 39q-61 8 -114 25t-92 46t-61.5 71t-22.5 99q0 67 31 120t83.5 90t121 56.5t143.5 19.5q83 0 153.5 -18.5t122.5 -53.5t81.5 -87t29.5 -118q0 -48 -21.5 -89.5t-59 -73.5t-88.5 -54t-110 -32
q10 -20 38.5 -36.5t82.5 -16.5q23 0 42.5 5t38 18.5t37 37.5t38.5 61z" />
    <glyph glyph-name="iotadieresistonos" unicode="&#x390;" horiz-adv-x="425" 
d="M180 813l32 107h100l-66 -107h-66zM80 751q0 26 20 40t44 14q23 0 38.5 -18t15.5 -39q0 -26 -17 -41t-41 -15q-27 0 -43.5 16t-16.5 43zM234 751q0 26 20 40t44 14q23 0 38.5 -18t15.5 -39q0 -26 -17 -41t-41 -15q-27 0 -43.5 16t-16.5 43zM400 650q-22 -33 -42 -68
t-35 -72t-23.5 -75.5t-8.5 -78.5q0 -195 109 -356h-374q24 45 45 89.5t37 89.5t25.5 90t9.5 90q0 85 -27 156.5t-91 134.5h375z" />
    <glyph glyph-name="Alpha" unicode="&#x391;" horiz-adv-x="865" 
d="M301 293q0 -17 9 -30t28 -13h109q21 0 31.5 14.5t10.5 34.5q0 16 -9.5 45.5t-23.5 58.5t-30.5 50.5t-30.5 21.5q-15 0 -31.5 -24.5t-30.5 -56t-23 -61t-9 -40.5zM5 0q43 55 82 117.5t69 129.5t47.5 138t17.5 143q0 30 -3 61t-11 61h398l1 -1q-2 -14 -2 -27v-27
q0 -85 21.5 -163.5t57.5 -152.5t82 -143.5t95 -135.5h-317q11 18 18.5 36t7.5 41q0 26 -13 41t-33 22.5t-44 9t-46 1.5h-21q-27 0 -53.5 -1.5t-47.5 -8t-34 -20t-13 -36.5q0 -22 10 -44.5t24 -40.5h-293z" />
    <glyph glyph-name="Beta" unicode="&#x392;" horiz-adv-x="808" 
d="M266 487q0 -24 11.5 -40.5t29.5 -26.5t39.5 -14t41.5 -4t45 4t47 13.5t36.5 26.5t14.5 44q0 26 -12.5 41.5t-31.5 24t-41.5 11.5t-42.5 3q-21 0 -45 -3.5t-44.5 -12.5t-34 -25t-13.5 -42zM263 199q0 -30 11.5 -50t30 -32t43 -17.5t49.5 -5.5t54 4.5t53.5 16t41 32
t16.5 52.5q0 30 -14.5 50.5t-37 32.5t-49.5 17.5t-53 5.5q-28 0 -54.5 -4t-46.5 -15.5t-32 -32.5t-12 -54zM126 333q0 85 -16 145t-35 97.5t-34.5 55t-14.5 17.5q60 0 118 3.5t110 7t98 7t82 3.5q21 0 51.5 -2t64.5 -8t68 -17.5t61.5 -30t44.5 -45.5t17 -65
q0 -29 -11.5 -51.5t-28 -39.5t-36.5 -28.5t-36.5 -19t-28 -10.5t-11.5 -4t12.5 -3.5t31.5 -8.5t40.5 -16.5t40.5 -27t31.5 -39.5t12.5 -54q0 -70 -34.5 -110t-88 -59.5t-119 -24.5t-128.5 -5h-347q45 75 65 160t20 173z" />
    <glyph glyph-name="Gamma" unicode="&#x393;" horiz-adv-x="695" 
d="M680 316q-20 38 -38.5 80.5t-43.5 78.5t-60.5 59.5t-90.5 23.5q-42 0 -72 -17.5t-49 -46t-27.5 -65.5t-8.5 -76q0 -52 11.5 -103t34 -97t56 -85t77.5 -68h-183h-124t-76 0.5t-40.5 0.5h-16.5h-4q33 30 56 67t37 78t20.5 84.5t6.5 85.5q0 88 -29 172.5t-74 159.5l3.5 0.5
t22 1t56.5 0.5h107.5h175.5h259z" />
    <glyph glyph-name="Epsilon" unicode="&#x395;" horiz-adv-x="760" 
d="M36 0q18 37 35 74t30 75.5t21 80t8 86.5q0 62 -8 108.5t-22 84.5t-33 71t-42 69h12.5h30.5t63 0.5t109 0.5h168h241l71 -224q-31 27 -64.5 51.5t-68.5 44t-71 31t-72 11.5q-43 0 -74.5 -5t-51.5 -18t-29.5 -36t-9.5 -58q0 -38 16 -61.5t58 -23.5q27 0 50.5 10.5t43.5 26
t35.5 34t26.5 34.5t17 27l6 11v-4v-13.5t-0.5 -33t-1 -63.5t-1 -104.5t-1.5 -155.5q-16 19 -33 41.5t-38 42.5t-46 33.5t-56 13.5q-34 0 -51 -20t-17 -54q0 -31 11.5 -52.5t31 -34.5t44.5 -18.5t53 -5.5q53 0 96 17t80.5 44.5t70.5 62.5t66 72q-20 -99 -31 -153.5t-17 -80.5
t-8 -31.5t-3 -7.5h-645z" />
    <glyph glyph-name="Zeta" unicode="&#x396;" horiz-adv-x="711" 
d="M694 382q-18 -128 -28 -204t-15 -115.5t-6.5 -51l-1.5 -11.5h-643q52 64 97.5 122t87.5 112q35 45 68 91.5t59 87t42 72.5t16 48q0 19 -12.5 33.5t-33.5 14.5q-35 0 -65.5 -16t-57 -41.5t-49.5 -57.5t-42 -64t-35 -61.5t-29 -49.5q4 43 8 90.5t7.5 94.5t7.5 91.5t9 82.5
h618q-91 -103 -178.5 -214t-159.5 -226q-12 -20 -23 -42.5t-11 -45.5q0 -17 12.5 -30t53.5 -13q40 0 73 15t61 40t51 56.5t43.5 65.5t39 66.5t36.5 59.5z" />
    <glyph glyph-name="Eta" unicode="&#x397;" horiz-adv-x="877" 
d="M485 0q20 22 38.5 47t33 52t23 55t8.5 55q0 29 -15.5 45.5t-36.5 24.5t-43 10t-36 2h-35q-27 0 -49.5 -2t-38.5 -9.5t-25 -21.5t-9 -38q0 -66 24 -118.5t69 -101.5h-357q28 45 48.5 85t34.5 79.5t21 80t7 85.5q0 66 -7 113t-22 82.5t-38 64.5t-55 60h379
q-17 -22 -35 -46.5t-32.5 -50t-24 -52t-9.5 -53.5q0 -22 10.5 -35t27 -19.5t37 -8.5t39.5 -2h43q20 0 44 1.5t44.5 9t34.5 23t14 43.5q0 57 -28 105t-73 85h356q-22 -33 -41.5 -72.5t-34.5 -82.5t-23.5 -86.5t-8.5 -82.5q0 -48 6 -90t19 -81t32.5 -77t46.5 -78h-363z" />
    <glyph glyph-name="Theta" unicode="&#x398;" 
d="M575 234q-29 19 -61 33t-66 14q-83 0 -154 -47v182q38 -21 77 -36t78 -15q36 0 67.5 11.5t58.5 39.5v-182zM241 324q0 -48 10 -93t33 -79.5t60 -55t91 -20.5q52 0 89 20.5t61 54.5t35 78.5t11 91.5q0 45 -8.5 90t-29.5 81t-56 59t-88 23q-54 0 -93.5 -20.5t-65 -55
t-37.5 -79.5t-12 -95zM816 324q0 -77 -30 -141t-80.5 -110t-117.5 -71.5t-142 -25.5q-78 0 -150 19.5t-126.5 61t-87 105.5t-32.5 153q0 86 31 152.5t83.5 111.5t121 68.5t143.5 23.5q83 0 153.5 -22.5t122.5 -66t81.5 -108.5t29.5 -150z" />
    <glyph glyph-name="Iota" unicode="&#x399;" horiz-adv-x="425" 
d="M400 650q-22 -33 -42 -68t-35 -72t-23.5 -75.5t-8.5 -78.5q0 -195 109 -356h-374q24 45 45 89.5t37 89.5t25.5 90t9.5 90q0 85 -27 156.5t-91 134.5h375z" />
    <glyph glyph-name="Kappa" unicode="&#x39a;" horiz-adv-x="877" 
d="M613 0q-33 20 -45.5 53.5t-16.5 71.5t-4.5 77.5t-8.5 71t-30 51.5t-68 20q-151 0 -151 -148q0 -35 11 -64t30.5 -53t46 -43.5t57.5 -35.5h-403q60 84 83.5 169.5t23.5 179.5q0 51 -4 93t-16 78.5t-34.5 68t-58.5 60.5q164 0 261.5 -0.5t108.5 -0.5q-27 -24 -46 -47.5
t-31 -49t-17.5 -55t-5.5 -64.5q0 -5 2.5 -14t15.5 -9q6 0 24 11t38.5 25t39.5 28.5t28 21.5q17 15 34 37t17 48q0 13 -7 24t-16 19.5t-17.5 15t-11.5 10.5h430q-45 -25 -78 -41.5t-59.5 -29t-50 -25t-51 -29.5t-61.5 -41.5t-81 -61.5q47 0 92.5 -8.5t80.5 -29t56.5 -56
t21.5 -89.5v-12q0 -32 1.5 -63.5t9 -61t24 -55.5t46.5 -47h-210z" />
    </font>
</defs>
</svg>
